File Size196.3 MB (205,821,569 bytes)
DownloadAnonFiles | ClickNUpload | DropAPK | Free | MultiUp
  • BdUpload
  • DownAce
  • Fichier
  • FileCloud
  • Filerio
  • FilesCdn
  • IndiShare
  • Kbagi
  • Turbobit
  • UpToBox
  • Uppit
| Sendspace | SolidFiles | ZippyShare
HashesCRC32: 7D24C19E, MD5: 3D6546D111294D2EFCF97CDCF27F3A9F, SHA1: 89C4F1D96EB9177A87FA4F48ED9580938CC781D2, SHA256: 02608BB815F1EEF38BD2ACD08EB5135C264AA58466050A9883D3A09F2AD1BC2B, ED2K: 6F61E3093F47AC446F003506CBDFD9A7
Screenshots
screenshotscreenshotscreenshotscreenshotscreenshot
Additional Info
General
Complete name                            : Episode 01.mp4
Format                                   : MPEG-4
Format profile                           : Base Media / Version 2
Codec ID                                 : mp42 (isom/mp42)
File size                                : 196 MiB
Duration                                 : 23 min 40 s
Overall bit rate mode                    : Variable
Overall bit rate                         : 1 159 kb/s
Encoded date                             : UTC 2020-03-26 11:46:10
Tagged date                              : UTC 2020-03-26 11:46:10
gsst                                     : 0
gstd                                     : 1420550

Video
ID                                       : 1
Format                                   : AVC
Format/Info                              : Advanced Video Codec
Format profile                           : High@L4
Format settings                          : CABAC / 2 Ref Frames
Format settings, CABAC                   : Yes
Format settings, ReFrames                : 2 frames
Codec ID                                 : avc1
Codec ID/Info                            : Advanced Video Coding
Duration                                 : 23 min 40 s
Bit rate                                 : 1 028 kb/s
Width                                    : 1 920 pixels
Height                                   : 1 080 pixels
Display aspect ratio                     : 16:9
Frame rate mode                          : Constant
Frame rate                               : 23.976 (24000/1001) FPS
Color space                              : YUV
Chroma subsampling                       : 4:2:0
Bit depth                                : 8 bits
Scan type                                : Progressive
Bits/(Pixel*Frame)                       : 0.021
Stream size                              : 174 MiB (89%)
Title                                    : ISO Media file produced by Google Inc. Created on: 03/26/2020.
Writing library                          : x264 core 155 r2901 7d0ff22
Encoded date                             : UTC 2020-03-26 11:46:10
Tagged date                              : UTC 2020-03-26 11:46:10
Color range                              : Limited
Color primaries                          : BT.709
Transfer characteristics                 : BT.709
Matrix coefficients                      : BT.709
Codec configuration box                  : avcC

Audio
ID                                       : 2
Format                                   : AAC LC
Format/Info                              : Advanced Audio Codec Low Complexity
Codec ID                                 : mp4a-40-2
Duration                                 : 23 min 40 s
Bit rate mode                            : Variable
Bit rate                                 : 128 kb/s
Channel(s)                               : 2 channels
Channel layout                           : L R
Sampling rate                            : 44.1 kHz
Frame rate                               : 43.066 FPS (1024 SPF)
Compression mode                         : Lossy
Stream size                              : 21.7 MiB (11%)
Title                                    : ISO Media file produced by Google Inc. Created on: 03/26/2020.
Encoded date                             : UTC 2020-03-26 11:46:10
Tagged date                              : UTC 2020-03-26 11:46:10

Other Files in this Torrent
Episode 01.mp4
beta
Anime DDL+NZB mirror
Current Time: 01/12/2021 11:57



About/FAQs

Discord