File Size183.8 MB (192,715,499 bytes)
DownloadAnonFiles | ClickNUpload | DropAPK | Free | MultiUp
  • BdUpload
  • DownAce
  • Fichier
  • FileCloud
  • Filerio
  • FilesCdn
  • IndiShare
  • Kbagi
  • Turbobit
  • UpToBox
  • Uppit
| Sendspace | SolidFiles | ZippyShare
HashesCRC32: 625E1A42, MD5: DE9FB05BC03602D487D474367BA3D912, SHA1: CD967D7C54163D24E094ECFF2A1096BF020DCF87, SHA256: 2821C723960256BB3E13E687E3E52D156D321CCAD2D51D8881B8B6DF3B1D25A0, ED2K: 2BBD399C3CE332C974102F885C383468
Screenshots
screenshotscreenshotscreenshotscreenshotscreenshot
Additional Info
General
Complete name                            : Episode 11.mp4
Format                                   : MPEG-4
Format profile                           : Base Media / Version 2
Codec ID                                 : mp42 (isom/mp42)
File size                                : 184 MiB
Duration                                 : 22 min 46 s
Overall bit rate mode                    : Variable
Overall bit rate                         : 1 128 kb/s
Encoded date                             : UTC 2020-04-18 02:13:59
Tagged date                              : UTC 2020-04-18 02:13:59
gsst                                     : 0
gstd                                     : 1366610

Video
ID                                       : 1
Format                                   : AVC
Format/Info                              : Advanced Video Codec
Format profile                           : High@L4
Format settings                          : CABAC / 2 Ref Frames
Format settings, CABAC                   : Yes
Format settings, ReFrames                : 2 frames
Codec ID                                 : avc1
Codec ID/Info                            : Advanced Video Coding
Duration                                 : 22 min 46 s
Bit rate                                 : 996 kb/s
Width                                    : 1 920 pixels
Height                                   : 1 080 pixels
Display aspect ratio                     : 16:9
Frame rate mode                          : Constant
Frame rate                               : 29.970 (30000/1001) FPS
Color space                              : YUV
Chroma subsampling                       : 4:2:0
Bit depth                                : 8 bits
Scan type                                : Progressive
Bits/(Pixel*Frame)                       : 0.016
Stream size                              : 162 MiB (88%)
Title                                    : ISO Media file produced by Google Inc. Created on: 04/17/2020.
Writing library                          : x264 core 155 r2901 7d0ff22
Encoded date                             : UTC 2020-04-18 02:13:59
Tagged date                              : UTC 2020-04-18 02:13:59
Color range                              : Limited
Color primaries                          : BT.709
Transfer characteristics                 : BT.709
Matrix coefficients                      : BT.709
Codec configuration box                  : avcC

Audio
ID                                       : 2
Format                                   : AAC LC
Format/Info                              : Advanced Audio Codec Low Complexity
Codec ID                                 : mp4a-40-2
Duration                                 : 22 min 46 s
Bit rate mode                            : Variable
Bit rate                                 : 128 kb/s
Channel(s)                               : 2 channels
Channel layout                           : L R
Sampling rate                            : 44.1 kHz
Frame rate                               : 43.066 FPS (1024 SPF)
Compression mode                         : Lossy
Stream size                              : 20.9 MiB (11%)
Title                                    : ISO Media file produced by Google Inc. Created on: 04/17/2020.
Language                                 : English
Encoded date                             : UTC 2020-04-18 02:13:59
Tagged date                              : UTC 2020-04-18 02:13:59

Other Files in this Torrent
Episode 11.mp4
beta
Anime DDL+NZB mirror
Current Time: 19/06/2021 23:58



About/FAQs