File Size333.9 MB (350,091,535 bytes)
DownloadAnonFiles | ClickNUpload | DropAPK | Free | MultiUp
  • BdUpload
  • DownAce
  • Fichier
  • FileCloud
  • Filerio
  • FilesCdn
  • IndiShare
  • Kbagi
  • Turbobit
  • UpToBox
  • Uppit
| SolidFiles | ZippyShare
Sendspace: Part1, Part2
HashesCRC32: 8DB8477B, MD5: 7EE5E8AEFA88C57AE8A5F940F4F825C5, SHA1: C692EEC63DE940F28EE09BC2D4FF90C53BA59330, SHA256: BBA54B8067357C6EDEC3DE3E88C63C3C13D9D9C5BC0C2C52961EDDD5B95A2DEB, ED2K: 06AFB45793591E67B9370D24CE3DC3EA
Screenshots
screenshotscreenshotscreenshotscreenshotscreenshot
Additional Info
General
Complete name                            : Episode 06.mp4
Format                                   : MPEG-4
Format profile                           : Base Media / Version 2
Codec ID                                 : mp42 (isom/mp42)
File size                                : 334 MiB
Duration                                 : 22 min 1 s
Overall bit rate mode                    : Variable
Overall bit rate                         : 2 120 kb/s
Encoded date                             : UTC 2020-04-17 00:33:43
Tagged date                              : UTC 2020-04-17 00:33:43
gsst                                     : 0
gstd                                     : 1321424

Video
ID                                       : 1
Format                                   : AVC
Format/Info                              : Advanced Video Codec
Format profile                           : High@L4
Format settings                          : CABAC / 2 Ref Frames
Format settings, CABAC                   : Yes
Format settings, ReFrames                : 2 frames
Codec ID                                 : avc1
Codec ID/Info                            : Advanced Video Coding
Duration                                 : 22 min 1 s
Bit rate                                 : 1 988 kb/s
Width                                    : 1 920 pixels
Height                                   : 1 080 pixels
Display aspect ratio                     : 16:9
Frame rate mode                          : Constant
Frame rate                               : 29.970 (30000/1001) FPS
Color space                              : YUV
Chroma subsampling                       : 4:2:0
Bit depth                                : 8 bits
Scan type                                : Progressive
Bits/(Pixel*Frame)                       : 0.032
Stream size                              : 313 MiB (94%)
Title                                    : ISO Media file produced by Google Inc. Created on: 04/16/2020.
Writing library                          : x264 core 155 r2901 7d0ff22
Encoded date                             : UTC 2020-04-17 00:33:43
Tagged date                              : UTC 2020-04-17 00:33:43
Color range                              : Limited
Color primaries                          : BT.709
Transfer characteristics                 : BT.709
Matrix coefficients                      : BT.709
Codec configuration box                  : avcC

Audio
ID                                       : 2
Format                                   : AAC LC
Format/Info                              : Advanced Audio Codec Low Complexity
Codec ID                                 : mp4a-40-2
Duration                                 : 22 min 1 s
Bit rate mode                            : Variable
Bit rate                                 : 128 kb/s
Channel(s)                               : 2 channels
Channel layout                           : L R
Sampling rate                            : 44.1 kHz
Frame rate                               : 43.066 FPS (1024 SPF)
Compression mode                         : Lossy
Stream size                              : 20.2 MiB (6%)
Title                                    : ISO Media file produced by Google Inc. Created on: 04/16/2020.
Language                                 : English
Encoded date                             : UTC 2020-04-17 00:33:43
Tagged date                              : UTC 2020-04-17 00:33:43

Other Files in this Torrent
Episode 06.mp4
beta
Anime DDL+NZB mirror
Current Time: 01/12/2021 13:34



About/FAQs

Discord