File Size211.8 MB (222,081,148 bytes)
DownloadAnonFiles | ClickNUpload | DropAPK | Free | MultiUp
  • BdUpload
  • DownAce
  • Fichier
  • FileCloud
  • Filerio
  • FilesCdn
  • IndiShare
  • Kbagi
  • Turbobit
  • UpToBox
  • Uppit
| Sendspace | SolidFiles | ZippyShare
HashesCRC32: 0937E752, MD5: 1AE49753732456CCDE733166907BEC7F, SHA1: DE605567050A41E751765658E98BE1E15CF20299, SHA256: A5174AD541B839726FC6DC87647228C00C1C4AFD07DC49082ED6D533B7029A0A, ED2K: B1482EFFE5BE45220CBCA6447F840CE5
Screenshots
screenshotscreenshotscreenshotscreenshotscreenshot
Additional Info
General
Complete name                            : Episode 02.mp4
Format                                   : MPEG-4
Format profile                           : Base Media / Version 2
Codec ID                                 : mp42 (isom/mp42)
File size                                : 212 MiB
Duration                                 : 22 min 1 s
Overall bit rate mode                    : Variable
Overall bit rate                         : 1 344 kb/s
Encoded date                             : UTC 2020-04-19 05:12:56
Tagged date                              : UTC 2020-04-19 05:12:56
gsst                                     : 0
gstd                                     : 1321586

Video
ID                                       : 1
Format                                   : AVC
Format/Info                              : Advanced Video Codec
Format profile                           : High@L4
Format settings                          : CABAC / 2 Ref Frames
Format settings, CABAC                   : Yes
Format settings, ReFrames                : 2 frames
Codec ID                                 : avc1
Codec ID/Info                            : Advanced Video Coding
Duration                                 : 22 min 1 s
Bit rate                                 : 1 212 kb/s
Width                                    : 1 920 pixels
Height                                   : 1 080 pixels
Display aspect ratio                     : 16:9
Frame rate mode                          : Constant
Frame rate                               : 29.970 (30000/1001) FPS
Color space                              : YUV
Chroma subsampling                       : 4:2:0
Bit depth                                : 8 bits
Scan type                                : Progressive
Bits/(Pixel*Frame)                       : 0.020
Stream size                              : 191 MiB (90%)
Title                                    : ISO Media file produced by Google Inc. Created on: 04/18/2020.
Writing library                          : x264 core 155 r2901 7d0ff22
Encoded date                             : UTC 2020-04-19 05:12:56
Tagged date                              : UTC 2020-04-19 05:12:56
Color range                              : Limited
Color primaries                          : BT.709
Transfer characteristics                 : BT.709
Matrix coefficients                      : BT.709
Codec configuration box                  : avcC

Audio
ID                                       : 2
Format                                   : AAC LC
Format/Info                              : Advanced Audio Codec Low Complexity
Codec ID                                 : mp4a-40-2
Duration                                 : 22 min 1 s
Bit rate mode                            : Variable
Bit rate                                 : 128 kb/s
Channel(s)                               : 2 channels
Channel layout                           : L R
Sampling rate                            : 44.1 kHz
Frame rate                               : 43.066 FPS (1024 SPF)
Compression mode                         : Lossy
Stream size                              : 20.2 MiB (10%)
Title                                    : ISO Media file produced by Google Inc. Created on: 04/18/2020.
Language                                 : English
Encoded date                             : UTC 2020-04-19 05:12:56
Tagged date                              : UTC 2020-04-19 05:12:56

Other Files in this Torrent
Episode 02.mp4
beta
Anime DDL+NZB mirror
Current Time: 01/12/2021 12:20



About/FAQs

Discord