File Size160.3 MB (168,062,786 bytes)
DownloadAnonFiles | ClickNUpload | DropAPK | Free | MultiUp
  • BdUpload
  • DownAce
  • Fichier
  • FileCloud
  • Filerio
  • FilesCdn
  • IndiShare
  • Kbagi
  • Turbobit
  • UpToBox
  • Uppit
| Sendspace | SolidFiles | ZippyShare
HashesCRC32: 8C96BED0, MD5: 15C34266574DA7364BD71141FD1BB416, SHA1: 95B7AC6ADC317DFCDEA30D715B8E4ED7C6BDE916, SHA256: F8E3A28CBA46B6E7433341E532A03648BEDA39FBCA7552227B51E70211203FC8, ED2K: 9F75458C6FDFF33B56256BB997EDFA10
Screenshots
screenshotscreenshotscreenshotscreenshotscreenshot
Additional Info
General
Complete name                            : Episode 10.mp4
Format                                   : MPEG-4
Format profile                           : Base Media / Version 2
Codec ID                                 : mp42 (isom/mp42)
File size                                : 160 MiB
Duration                                 : 22 min 1 s
Overall bit rate mode                    : Variable
Overall bit rate                         : 1 018 kb/s
Encoded date                             : UTC 2020-04-18 20:37:04
Tagged date                              : UTC 2020-04-18 20:37:04
gsst                                     : 0
gstd                                     : 1321447

Video
ID                                       : 1
Format                                   : AVC
Format/Info                              : Advanced Video Codec
Format profile                           : High@L4
Format settings                          : CABAC / 2 Ref Frames
Format settings, CABAC                   : Yes
Format settings, ReFrames                : 2 frames
Codec ID                                 : avc1
Codec ID/Info                            : Advanced Video Coding
Duration                                 : 22 min 1 s
Bit rate                                 : 885 kb/s
Width                                    : 1 920 pixels
Height                                   : 1 080 pixels
Display aspect ratio                     : 16:9
Frame rate mode                          : Constant
Frame rate                               : 29.970 (30000/1001) FPS
Color space                              : YUV
Chroma subsampling                       : 4:2:0
Bit depth                                : 8 bits
Scan type                                : Progressive
Bits/(Pixel*Frame)                       : 0.014
Stream size                              : 139 MiB (87%)
Title                                    : ISO Media file produced by Google Inc. Created on: 04/18/2020.
Writing library                          : x264 core 155 r2901 7d0ff22
Encoded date                             : UTC 2020-04-18 20:37:04
Tagged date                              : UTC 2020-04-18 20:37:04
Color range                              : Limited
Color primaries                          : BT.709
Transfer characteristics                 : BT.709
Matrix coefficients                      : BT.709
Codec configuration box                  : avcC

Audio
ID                                       : 2
Format                                   : AAC LC
Format/Info                              : Advanced Audio Codec Low Complexity
Codec ID                                 : mp4a-40-2
Duration                                 : 22 min 1 s
Bit rate mode                            : Variable
Bit rate                                 : 128 kb/s
Channel(s)                               : 2 channels
Channel layout                           : L R
Sampling rate                            : 44.1 kHz
Frame rate                               : 43.066 FPS (1024 SPF)
Compression mode                         : Lossy
Stream size                              : 20.2 MiB (13%)
Title                                    : ISO Media file produced by Google Inc. Created on: 04/18/2020.
Language                                 : English
Encoded date                             : UTC 2020-04-18 20:37:04
Tagged date                              : UTC 2020-04-18 20:37:04

Other Files in this Torrent
Episode 10.mp4
beta
Anime DDL+NZB mirror
Current Time: 20/06/2021 01:00



About/FAQs