File Size205.8 MB (215,797,293 bytes)
DownloadAnonFiles | ClickNUpload | DropAPK | Free | MultiUp
  • BdUpload
  • DownAce
  • Fichier
  • FileCloud
  • Filerio
  • FilesCdn
  • IndiShare
  • Kbagi
  • Turbobit
  • UpToBox
  • Uppit
| Sendspace | SolidFiles | ZippyShare
HashesCRC32: 03B36ED6, MD5: A683EE5B8E979813D99831E58AAB2F7A, SHA1: 86A54EED5D79171A605A4924439E9FCA6C3F4361, SHA256: BEDEB37F6C8876D62CD3E22D25FF0C429E022887E67208DB36B4EFFC8AEFEA42, ED2K: 2EEF8A59A19DA5302AFB594B55005019
Screenshots
screenshotscreenshotscreenshotscreenshotscreenshot
Additional Info
General
Complete name                            : Episode 09.mp4
Format                                   : MPEG-4
Format profile                           : Base Media / Version 2
Codec ID                                 : mp42 (isom/mp42)
File size                                : 206 MiB
Duration                                 : 22 min 1 s
Overall bit rate mode                    : Variable
Overall bit rate                         : 1 307 kb/s
Encoded date                             : UTC 2020-04-19 21:37:03
Tagged date                              : UTC 2020-04-19 21:37:03
gsst                                     : 0
gstd                                     : 1321192

Video
ID                                       : 1
Format                                   : AVC
Format/Info                              : Advanced Video Codec
Format profile                           : High@L4
Format settings                          : CABAC / 2 Ref Frames
Format settings, CABAC                   : Yes
Format settings, ReFrames                : 2 frames
Codec ID                                 : avc1
Codec ID/Info                            : Advanced Video Coding
Duration                                 : 22 min 1 s
Bit rate                                 : 1 175 kb/s
Width                                    : 1 920 pixels
Height                                   : 1 080 pixels
Display aspect ratio                     : 16:9
Frame rate mode                          : Constant
Frame rate                               : 29.970 (30000/1001) FPS
Color space                              : YUV
Chroma subsampling                       : 4:2:0
Bit depth                                : 8 bits
Scan type                                : Progressive
Bits/(Pixel*Frame)                       : 0.019
Stream size                              : 185 MiB (90%)
Title                                    : ISO Media file produced by Google Inc. Created on: 04/19/2020.
Writing library                          : x264 core 155 r2901 7d0ff22
Encoded date                             : UTC 2020-04-19 21:37:03
Tagged date                              : UTC 2020-04-19 21:37:03
Color range                              : Limited
Color primaries                          : BT.709
Transfer characteristics                 : BT.709
Matrix coefficients                      : BT.709
Codec configuration box                  : avcC

Audio
ID                                       : 2
Format                                   : AAC LC
Format/Info                              : Advanced Audio Codec Low Complexity
Codec ID                                 : mp4a-40-2
Duration                                 : 22 min 1 s
Bit rate mode                            : Variable
Bit rate                                 : 128 kb/s
Channel(s)                               : 2 channels
Channel layout                           : L R
Sampling rate                            : 44.1 kHz
Frame rate                               : 43.066 FPS (1024 SPF)
Compression mode                         : Lossy
Stream size                              : 20.2 MiB (10%)
Title                                    : ISO Media file produced by Google Inc. Created on: 04/19/2020.
Language                                 : English
Encoded date                             : UTC 2020-04-19 21:37:03
Tagged date                              : UTC 2020-04-19 21:37:03

Other Files in this Torrent
Episode 09.mp4
beta
Anime DDL+NZB mirror
Current Time: 01/12/2021 12:03



About/FAQs

Discord