File Size275.3 MB (288,624,085 bytes)
DownloadAnonFiles | ClickNUpload | DropAPK | Free | MultiUp
  • BdUpload
  • DownAce
  • Fichier
  • FileCloud
  • Filerio
  • FilesCdn
  • IndiShare
  • Kbagi
  • Turbobit
  • UpToBox
  • Uppit
| Sendspace | SolidFiles | ZippyShare
HashesCRC32: 425305C3, MD5: D6099970276B55981874B6522BE31FB8, SHA1: 19847B3D5B8D8577237A3DFEC0FB8EA44FB75C6A, SHA256: E024DBBCBD90411B66EEEDF0854B0B49E48A72AC542B5274DCBE46588BBEB376, ED2K: D4EAECD8F78CFF9E33F629EC1BDA9E3A
Screenshots
screenshotscreenshotscreenshotscreenshotscreenshot
Additional Info
General
Complete name                            : Episode 08.mp4
Format                                   : MPEG-4
Format profile                           : Base Media / Version 2
Codec ID                                 : mp42 (isom/mp42)
File size                                : 275 MiB
Duration                                 : 22 min 1 s
Overall bit rate mode                    : Variable
Overall bit rate                         : 1 747 kb/s
Encoded date                             : UTC 2020-04-19 02:00:41
Tagged date                              : UTC 2020-04-19 02:00:41
gsst                                     : 0
gstd                                     : 1321377

Video
ID                                       : 1
Format                                   : AVC
Format/Info                              : Advanced Video Codec
Format profile                           : High@L4
Format settings                          : CABAC / 2 Ref Frames
Format settings, CABAC                   : Yes
Format settings, ReFrames                : 2 frames
Codec ID                                 : avc1
Codec ID/Info                            : Advanced Video Coding
Duration                                 : 22 min 1 s
Bit rate                                 : 1 615 kb/s
Width                                    : 1 920 pixels
Height                                   : 1 080 pixels
Display aspect ratio                     : 16:9
Frame rate mode                          : Constant
Frame rate                               : 29.970 (30000/1001) FPS
Color space                              : YUV
Chroma subsampling                       : 4:2:0
Bit depth                                : 8 bits
Scan type                                : Progressive
Bits/(Pixel*Frame)                       : 0.026
Stream size                              : 254 MiB (92%)
Title                                    : ISO Media file produced by Google Inc. Created on: 04/18/2020.
Writing library                          : x264 core 155 r2901 7d0ff22
Encoded date                             : UTC 2020-04-19 02:00:41
Tagged date                              : UTC 2020-04-19 02:00:41
Color range                              : Limited
Color primaries                          : BT.709
Transfer characteristics                 : BT.709
Matrix coefficients                      : BT.709
Codec configuration box                  : avcC

Audio
ID                                       : 2
Format                                   : AAC LC
Format/Info                              : Advanced Audio Codec Low Complexity
Codec ID                                 : mp4a-40-2
Duration                                 : 22 min 1 s
Source duration                          : 22 min 1 s
Bit rate mode                            : Variable
Bit rate                                 : 128 kb/s
Channel(s)                               : 2 channels
Channel layout                           : L R
Sampling rate                            : 44.1 kHz
Frame rate                               : 43.066 FPS (1024 SPF)
Compression mode                         : Lossy
Stream size                              : 20.2 MiB (7%)
Source stream size                       : 20.2 MiB (7%)
Title                                    : ISO Media file produced by Google Inc. Created on: 04/18/2020.
Language                                 : English
Encoded date                             : UTC 2020-04-19 02:00:41
Tagged date                              : UTC 2020-04-19 02:00:41

Other Files in this Torrent
Episode 08.mp4
beta
Anime DDL+NZB mirror
Current Time: 01/12/2021 12:48



About/FAQs

Discord