File Size238.3 MB (249,894,889 bytes)
DownloadAnonFiles | ClickNUpload | DropAPK | Free | MultiUp
  • BdUpload
  • DownAce
  • Fichier
  • FileCloud
  • Filerio
  • FilesCdn
  • IndiShare
  • Kbagi
  • Turbobit
  • UpToBox
  • Uppit
| Sendspace | SolidFiles | ZippyShare
HashesCRC32: DCC427B3, MD5: 2CEA55602473CEA9EA81608969CF39D2, SHA1: AED9DF6E2C074D36ACF56F7B4F04D753C2DD0337, SHA256: 72B15B039424431C70B28DD6DDED152ECD01F1E26040D1538ECEFE5862692F74, ED2K: C543323988B09571EA3A206DEFB0A829
Screenshots
screenshotscreenshotscreenshotscreenshotscreenshot
Additional Info
General
Complete name                            : Episode 04 [720p].mp4
Format                                   : MPEG-4
Format profile                           : Base Media / Version 2
Codec ID                                 : mp42 (isom/mp42)
File size                                : 238 MiB
Duration                                 : 22 min 1 s
Overall bit rate mode                    : Variable
Overall bit rate                         : 1 513 kb/s
Encoded date                             : UTC 2020-02-09 09:42:25
Tagged date                              : UTC 2020-02-09 09:42:25
Writing application                      : Google
gsst                                     : 0
gstd                                     : 1321401

Video
ID                                       : 1
Format                                   : AVC
Format/Info                              : Advanced Video Codec
Format profile                           : High@L3.1
Format settings                          : CABAC / 1 Ref Frames
Format settings, CABAC                   : Yes
Format settings, ReFrames                : 1 frame
Format settings, GOP                     : M=1, N=60
Codec ID                                 : avc1
Codec ID/Info                            : Advanced Video Coding
Duration                                 : 22 min 1 s
Bit rate                                 : 1 382 kb/s
Width                                    : 1 280 pixels
Height                                   : 720 pixels
Display aspect ratio                     : 16:9
Frame rate mode                          : Constant
Frame rate                               : 29.970 (30000/1001) FPS
Color space                              : YUV
Chroma subsampling                       : 4:2:0
Bit depth                                : 8 bits
Scan type                                : Progressive
Bits/(Pixel*Frame)                       : 0.050
Stream size                              : 218 MiB (91%)
Title                                    : ISO Media file produced by Google Inc. Created on: 02/09/2020.
Writing library                          : x264 core 155 r2901 7d0ff22
Encoded date                             : UTC 2020-02-09 09:42:25
Tagged date                              : UTC 2020-02-09 09:42:25
Color range                              : Limited
Color primaries                          : BT.709
Transfer characteristics                 : BT.709
Matrix coefficients                      : BT.709
Codec configuration box                  : avcC

Audio
ID                                       : 2
Format                                   : AAC LC
Format/Info                              : Advanced Audio Codec Low Complexity
Codec ID                                 : mp4a-40-2
Duration                                 : 22 min 1 s
Bit rate mode                            : Variable
Bit rate                                 : 128 kb/s
Channel(s)                               : 2 channels
Channel layout                           : L R
Sampling rate                            : 44.1 kHz
Frame rate                               : 43.066 FPS (1024 SPF)
Compression mode                         : Lossy
Stream size                              : 20.2 MiB (8%)
Title                                    : ISO Media file produced by Google Inc. Created on: 02/09/2020.
Language                                 : English
Encoded date                             : UTC 2020-02-09 09:42:25
Tagged date                              : UTC 2020-02-09 09:42:25

Other Files in this Torrent
Episode 04 [720p].mp4
beta
Anime DDL+NZB mirror
Current Time: 20/06/2021 01:36



About/FAQs