File Size195.3 MB (204,796,824 bytes)
DownloadAnonFiles | ClickNUpload | DropAPK | Free | MultiUp
  • BdUpload
  • DownAce
  • Fichier
  • FileCloud
  • Filerio
  • FilesCdn
  • IndiShare
  • Kbagi
  • Turbobit
  • UpToBox
  • Uppit
| Sendspace | SolidFiles | ZippyShare
HashesCRC32: 156C5282, MD5: 86777B95B64C20B65FDD8A6E0B67DB50, SHA1: 0A4ACD3C2F44B72F33A19CF43F4B1DE79062BAE1, SHA256: 338A15E5DB49398E4094ED5A0343A8CDCF346C1BE3784310152DBF00572FC19D, ED2K: 6B9041681092165F553C0E3FCADA8075
Screenshots
screenshotscreenshotscreenshotscreenshotscreenshot
Additional Info
General
Complete name                            : Episode 03.mp4
Format                                   : MPEG-4
Format profile                           : Base Media / Version 2
Codec ID                                 : mp42 (isom/mp42)
File size                                : 195 MiB
Duration                                 : 22 min 46 s
Overall bit rate mode                    : Variable
Overall bit rate                         : 1 199 kb/s
Encoded date                             : UTC 2020-04-20 04:24:37
Tagged date                              : UTC 2020-04-20 04:24:37
gsst                                     : 0
gstd                                     : 1366912

Video
ID                                       : 1
Format                                   : AVC
Format/Info                              : Advanced Video Codec
Format profile                           : High@L4
Format settings                          : CABAC / 2 Ref Frames
Format settings, CABAC                   : Yes
Format settings, ReFrames                : 2 frames
Codec ID                                 : avc1
Codec ID/Info                            : Advanced Video Coding
Duration                                 : 22 min 46 s
Bit rate                                 : 1 067 kb/s
Width                                    : 1 920 pixels
Height                                   : 1 080 pixels
Display aspect ratio                     : 16:9
Frame rate mode                          : Constant
Frame rate                               : 23.976 (24000/1001) FPS
Color space                              : YUV
Chroma subsampling                       : 4:2:0
Bit depth                                : 8 bits
Scan type                                : Progressive
Bits/(Pixel*Frame)                       : 0.021
Stream size                              : 174 MiB (89%)
Title                                    : ISO Media file produced by Google Inc. Created on: 04/19/2020.
Writing library                          : x264 core 155 r2901 7d0ff22
Encoded date                             : UTC 2020-04-20 04:24:37
Tagged date                              : UTC 2020-04-20 04:24:37
Color range                              : Limited
Color primaries                          : BT.709
Transfer characteristics                 : BT.709
Matrix coefficients                      : BT.709
Codec configuration box                  : avcC

Audio
ID                                       : 2
Format                                   : AAC LC
Format/Info                              : Advanced Audio Codec Low Complexity
Codec ID                                 : mp4a-40-2
Duration                                 : 22 min 46 s
Bit rate mode                            : Variable
Bit rate                                 : 128 kb/s
Channel(s)                               : 2 channels
Channel layout                           : L R
Sampling rate                            : 44.1 kHz
Frame rate                               : 43.066 FPS (1024 SPF)
Compression mode                         : Lossy
Stream size                              : 20.9 MiB (11%)
Title                                    : ISO Media file produced by Google Inc. Created on: 04/19/2020.
Encoded date                             : UTC 2020-04-20 04:24:37
Tagged date                              : UTC 2020-04-20 04:24:37

Other Files in this Torrent
Episode 03.mp4
beta
Anime DDL+NZB mirror
Current Time: 01/12/2021 13:20



About/FAQs

Discord