File Size908.1 MB (952,195,203 bytes)
DownloadClickNUpload | Jheberg | MultiUp
  • ClickNupload
  • Fichier
  • Filerio
  • Free
  • Fufox
  • HugeFiles
  • Mightyupload
  • ToutBox
  • Turbobit
  • UpToBox
  • Uplea
  • UploadBaz
  • Uploadable
  • Uploaded
  • Uppit
  • Userscloud
| OpenLoad | Upfile.mobi
Sendspace: Part1, Part2, Part3, Part4
SolidFiles: Part1, Part2
HashesCRC32: EFC0D2E7, MD5: 5128507172012FD91EF51E7FF4D259C3, SHA1: BDE1895F84D598FD60BB84FAAF3961A7D024A5B7, SHA256: 9F9ED11CBDA5059088C97EBAF0D11534A2A58A245BA0C11C5DB8B790BC7371B2, ED2K: 521E7015509C1CCBB1473218F8C3DC73
Screenshots
screenshotscreenshotscreenshotscreenshotscreenshot
Additional Info
General
Unique ID                                : 216986061591393666099078464231311550553 (0xA33DFECF7A2E00F79ADFAF4963D22859)
Complete name                            : 13 - The Challengers.mkv
Format                                   : Matroska
Format version                           : Version 4 / Version 2
File size                                : 908 MiB
Duration                                 : 47 min 21 s
Overall bit rate                         : 2 681 kb/s
Encoded date                             : UTC 2017-12-28 19:23:21
Writing application                      : mkvmerge v13.0.0 ('The Juggler') 32bit
Writing library                          : libebml v1.3.4 + libmatroska v1.4.5

Video
ID                                       : 1
Format                                   : AVC
Format/Info                              : Advanced Video Codec
Format profile                           : High 10@L3.1
Format settings, CABAC                   : Yes
Format settings, ReFrames                : 4 frames
Codec ID                                 : V_MPEG4/ISO/AVC
Duration                                 : 47 min 21 s
Bit rate                                 : 2 359 kb/s
Width                                    : 1 280 pixels
Height                                   : 720 pixels
Display aspect ratio                     : 16:9
Frame rate mode                          : Constant
Frame rate                               : 23.976 (24000/1001) FPS
Color space                              : YUV
Chroma subsampling                       : 4:2:0
Bit depth                                : 10 bits
Scan type                                : Progressive
Bits/(Pixel*Frame)                       : 0.107
Stream size                              : 799 MiB (88%)
Default                                  : Yes
Forced                                   : No

Audio
ID                                       : 2
Format                                   : AAC
Format/Info                              : Advanced Audio Codec
Format profile                           : LC
Codec ID                                 : A_AAC
Duration                                 : 47 min 21 s
Bit rate                                 : 320 kb/s
Channel(s)                               : 2 channels
Channel positions                        : Front: L R
Sampling rate                            : 48.0 kHz
Frame rate                               : 46.875 FPS (1024 spf)
Compression mode                         : Lossy
Delay relative to video                  : 2 ms
Stream size                              : 108 MiB (12%)
Language                                 : Japanese
Default                                  : Yes
Forced                                   : No

Menu
00:00:00.000                             : en:00:23:31.035
00:00:00.041                             : en:00:23:43.088
00:01:20.038                             : en:00:25:03.085
00:02:50.086                             : en:00:26:33.133
00:12:18.070                             : en:00:36:01.117
00:20:53.043                             : en:00:44:36.090
00:38:55.041                             : en:01:02:38.088
00:42:30.548                             : en:01:06:13.595

Other Files in this Torrent
13 - The Challengers.mkv
beta
Anime DDL+NZB mirror
Current Time: 17/06/2024 10:54



About/FAQs

Discord