File Size552.8 MB (579,684,660 bytes)
DownloadClickNUpload | Go4Up | Jheberg | MultiUp | OpenLoad | Upfile.mobi
Sendspace: Part1, Part2
SolidFiles: Part1, Part2
HashesCRC32: F3A40A5F, MD5: 437F4E648B4364E6E544DFDFFD29E19B, SHA1: 27E3C99EC797A305D4894A7C1A29E2469794074E, SHA256: F3711EBB82F647766692079AFC92C886F0B57A6F2C59E6AF83E5C97F058450EC, ED2K: 70FE18B3C0CEBDD06C6525A986E0C1E9
Screenshots
screenshotscreenshotscreenshotscreenshotscreenshot
Additional Info
General
Unique ID                                : 242554943497795721695629859341094341143 (0xB67A6204B22FAEA1AA734096607FCA17)
Complete name                            : 09 - The Great Fault.mkv
Format                                   : Matroska
Format version                           : Version 4 / Version 2
File size                                : 553 MiB
Duration                                 : 23 min 42 s
Overall bit rate                         : 3 261 kb/s
Encoded date                             : UTC 2017-12-28 19:21:08
Writing application                      : mkvmerge v13.0.0 ('The Juggler') 32bit
Writing library                          : libebml v1.3.4 + libmatroska v1.4.5

Video
ID                                       : 1
Format                                   : AVC
Format/Info                              : Advanced Video Codec
Format profile                           : High 10@L3.1
Format settings, CABAC                   : Yes
Format settings, ReFrames                : 4 frames
Codec ID                                 : V_MPEG4/ISO/AVC
Duration                                 : 23 min 42 s
Bit rate                                 : 2 939 kb/s
Width                                    : 1 280 pixels
Height                                   : 720 pixels
Display aspect ratio                     : 16:9
Frame rate mode                          : Constant
Frame rate                               : 23.976 (24000/1001) FPS
Color space                              : YUV
Chroma subsampling                       : 4:2:0
Bit depth                                : 10 bits
Scan type                                : Progressive
Bits/(Pixel*Frame)                       : 0.133
Stream size                              : 498 MiB (90%)
Default                                  : Yes
Forced                                   : No

Audio
ID                                       : 2
Format                                   : AAC
Format/Info                              : Advanced Audio Codec
Format profile                           : LC
Codec ID                                 : A_AAC
Duration                                 : 23 min 42 s
Bit rate                                 : 320 kb/s
Channel(s)                               : 2 channels
Channel positions                        : Front: L R
Sampling rate                            : 48.0 kHz
Frame rate                               : 46.875 FPS (1024 spf)
Compression mode                         : Lossy
Delay relative to video                  : 20 ms
Stream size                              : 54.2 MiB (10%)
Language                                 : Japanese
Default                                  : Yes
Forced                                   : No

Menu
00:00:00.000                             : en:00:23:30.993
00:00:02.085                             : en:00:23:43.088
00:01:59.119                             : en:00:25:40.122
00:03:29.084                             : en:00:27:10.087
00:11:24.058                             : en:00:35:05.061
00:22:02.029                             : en:00:45:43.032
00:23:32.036                             : en:00:47:13.039

Other Files in this Torrent
09 - The Great Fault.mkv
beta
Anime DDL+NZB mirror
Current Time: 17/06/2024 10:25



About/FAQs

Discord