File Size458.6 MB (480,828,247 bytes)
DownloadClickNUpload | Go4Up | Jheberg | MultiUp
  • ClickNupload
  • Fichier
  • Filerio
  • Free
  • Fufox
  • HugeFiles
  • Mightyupload
  • ToutBox
  • Turbobit
  • UpToBox
  • Uplea
  • UploadBaz
  • Uploadable
  • Uploaded
  • Uppit
  • Userscloud
| OpenLoad | SolidFiles | Upfile.mobi
Sendspace: Part1, Part2
HashesCRC32: 3F6082C5, MD5: 37F6026C40CC45C2301BD60BC95B981D, SHA1: 8FD7F874154CB605B2D3D7FFFC4AC2E205C66741, SHA256: 1C3709120D8265A4318AA75D6CEF367B5ED552000AE7910C26563F8E83C3644B, ED2K: 69406338BAAEB2AE83636898F08C416D
Screenshots
screenshotscreenshotscreenshotscreenshotscreenshot
Additional Info
General
Unique ID                                : 251493795632028028574961332802513588114 (0xBD33F17479DAE688873B1D4DF478CF92)
Complete name                            : 06 - Seeker Camp.mkv
Format                                   : Matroska
Format version                           : Version 4 / Version 2
File size                                : 459 MiB
Duration                                 : 23 min 42 s
Overall bit rate                         : 2 705 kb/s
Encoded date                             : UTC 2017-10-30 16:02:20
Writing application                      : mkvmerge v13.0.0 ('The Juggler') 32bit
Writing library                          : libebml v1.3.4 + libmatroska v1.4.5

Video
ID                                       : 1
Format                                   : AVC
Format/Info                              : Advanced Video Codec
Format profile                           : High 10@L3.1
Format settings, CABAC                   : Yes
Format settings, ReFrames                : 4 frames
Codec ID                                 : V_MPEG4/ISO/AVC
Duration                                 : 23 min 42 s
Bit rate                                 : 2 383 kb/s
Width                                    : 1 280 pixels
Height                                   : 720 pixels
Display aspect ratio                     : 16:9
Frame rate mode                          : Constant
Frame rate                               : 23.976 (24000/1001) FPS
Color space                              : YUV
Chroma subsampling                       : 4:2:0
Bit depth                                : 10 bits
Scan type                                : Progressive
Bits/(Pixel*Frame)                       : 0.108
Stream size                              : 404 MiB (88%)
Default                                  : Yes
Forced                                   : No

Audio
ID                                       : 2
Format                                   : AAC
Format/Info                              : Advanced Audio Codec
Format profile                           : LC
Codec ID                                 : A_AAC
Duration                                 : 23 min 42 s
Bit rate                                 : 320 kb/s
Channel(s)                               : 2 channels
Channel positions                        : Front: L R
Sampling rate                            : 48.0 kHz
Frame rate                               : 46.875 FPS (1024 spf)
Compression mode                         : Lossy
Delay relative to video                  : 2 ms
Stream size                              : 54.2 MiB (12%)
Language                                 : Japanese
Default                                  : Yes
Forced                                   : No

Menu
00:00:00.000                             : en:00:23:30.993
00:00:00.041                             : en:00:23:43.088
00:03:27.040                             : en:00:27:10.087
00:04:57.088                             : en:00:28:40.135
00:16:45.129                             : en:00:40:28.176
00:22:00.110                             : en:00:45:43.157
00:23:30.117                             : en:00:47:13.164

Other Files in this Torrent
06 - Seeker Camp.mkv
beta
Anime DDL+NZB mirror
Current Time: 17/06/2024 11:10



About/FAQs

Discord