File Size495.1 MB (519,188,724 bytes)
DownloadClickNUpload | Go4Up | Jheberg | MultiUp | OpenLoad | SolidFiles | Upfile.mobi
Sendspace: Part1, Part2
HashesCRC32: 61450B39, MD5: 141EF58AFDD87377E6D13DE388C74BE2, SHA1: F56A4D59C6C1B73E8D733DF2B17F6CAD2B2A46B9, SHA256: E25DC80FE882720C368056C126296153812F8BCAFEE54BD9AB033AF88AFA8142, ED2K: C97DC25788F815A1F1142BF2FCB8E04B
Screenshots
screenshotscreenshotscreenshotscreenshotscreenshot
Additional Info
General
Unique ID                                : 183068616963317959510759861113826909533 (0x89B9BBAE52E8F16092E709EBBFE11D5D)
Complete name                            : 10 - Poison And The Curse.mkv
Format                                   : Matroska
Format version                           : Version 4 / Version 2
File size                                : 495 MiB
Duration                                 : 23 min 44 s
Overall bit rate                         : 2 917 kb/s
Encoded date                             : UTC 2017-12-28 19:21:08
Writing application                      : mkvmerge v13.0.0 ('The Juggler') 32bit
Writing library                          : libebml v1.3.4 + libmatroska v1.4.5

Video
ID                                       : 1
Format                                   : AVC
Format/Info                              : Advanced Video Codec
Format profile                           : High 10@L3.1
Format settings, CABAC                   : Yes
Format settings, ReFrames                : 4 frames
Codec ID                                 : V_MPEG4/ISO/AVC
Duration                                 : 23 min 44 s
Bit rate                                 : 2 594 kb/s
Width                                    : 1 280 pixels
Height                                   : 720 pixels
Display aspect ratio                     : 16:9
Frame rate mode                          : Constant
Frame rate                               : 23.976 (24000/1001) FPS
Color space                              : YUV
Chroma subsampling                       : 4:2:0
Bit depth                                : 10 bits
Scan type                                : Progressive
Bits/(Pixel*Frame)                       : 0.117
Stream size                              : 440 MiB (89%)
Default                                  : Yes
Forced                                   : No

Audio
ID                                       : 2
Format                                   : AAC
Format/Info                              : Advanced Audio Codec
Format profile                           : LC
Codec ID                                 : A_AAC
Duration                                 : 23 min 44 s
Bit rate                                 : 320 kb/s
Channel(s)                               : 2 channels
Channel positions                        : Front: L R
Sampling rate                            : 48.0 kHz
Frame rate                               : 46.875 FPS (1024 spf)
Compression mode                         : Lossy
Delay relative to video                  : 12 ms
Stream size                              : 54.3 MiB (11%)
Language                                 : Japanese
Default                                  : Yes
Forced                                   : No

Menu
00:00:00.000                             : en:00:47:13.039
00:00:02.044                             : en:00:47:25.092
00:02:44.039                             : en:00:50:07.087
00:04:14.004                             : en:00:51:37.052
00:10:49.066                             : en:00:58:12.114
00:22:02.030                             : en:01:09:25.078
00:23:32.036                             : en:01:10:55.084

Other Files in this Torrent
10 - Poison And The Curse.mkv
beta
Anime DDL+NZB mirror
Current Time: 20/06/2024 16:08



About/FAQs

Discord