File Size562.7 MB (590,004,430 bytes)
DownloadClickNUpload | Go4Up
  • Ezfile
  • FileFactory
  • FilePup
  • MegaShares
  • Nitroflare
  • NowDownload
  • Oboom
  • OpenLoad
  • Rapidgator
  • Share-Online
  • ToutBox
  • Uplea
  • Uploadable
  • Uppit
  • UsersCloud
| Jheberg | MultiUp | OpenLoad | Upfile.mobi
Sendspace: Part1, Part2
SolidFiles: Part1, Part2
HashesCRC32: 17053733, MD5: 4307D8CABB9F8234C0B1186F39134B9E, SHA1: B53EE5B1F6D06F86B9B4A35F56692E5B7316EA1E, SHA256: 6E5C870933BE60E0131CEE3278387282D94152771D72312F415C48F1626333CE, ED2K: 4368215B1B16C1809494C4266A3A608F
Screenshots
screenshotscreenshotscreenshotscreenshotscreenshot
Additional Info
General
Unique ID                                : 175111402299891455071005939407730429842 (0x83BD3AB55333DF7CB44A75AF0E0ECF92)
Complete name                            : 04 - The Edge Of The Abyss.mkv
Format                                   : Matroska
Format version                           : Version 4 / Version 2
File size                                : 563 MiB
Duration                                 : 23 min 41 s
Overall bit rate                         : 3 321 kb/s
Encoded date                             : UTC 2017-10-29 21:38:48
Writing application                      : mkvmerge v13.0.0 ('The Juggler') 32bit
Writing library                          : libebml v1.3.4 + libmatroska v1.4.5

Video
ID                                       : 1
Format                                   : AVC
Format/Info                              : Advanced Video Codec
Format profile                           : High 10@L3.1
Format settings, CABAC                   : Yes
Format settings, ReFrames                : 4 frames
Codec ID                                 : V_MPEG4/ISO/AVC
Duration                                 : 23 min 41 s
Bit rate                                 : 2 999 kb/s
Width                                    : 1 280 pixels
Height                                   : 720 pixels
Display aspect ratio                     : 16:9
Frame rate mode                          : Constant
Frame rate                               : 23.976 (24000/1001) FPS
Color space                              : YUV
Chroma subsampling                       : 4:2:0
Bit depth                                : 10 bits
Scan type                                : Progressive
Bits/(Pixel*Frame)                       : 0.136
Stream size                              : 508 MiB (90%)
Default                                  : Yes
Forced                                   : No

Audio
ID                                       : 2
Format                                   : AAC
Format/Info                              : Advanced Audio Codec
Format profile                           : LC
Codec ID                                 : A_AAC
Duration                                 : 23 min 41 s
Bit rate                                 : 320 kb/s
Channel(s)                               : 2 channels
Channel positions                        : Front: L R
Sampling rate                            : 48.0 kHz
Frame rate                               : 46.875 FPS (1024 spf)
Compression mode                         : Lossy
Delay relative to video                  : 6 ms
Stream size                              : 54.2 MiB (10%)
Language                                 : Japanese
Default                                  : Yes
Forced                                   : No

Menu
00:00:00.000                             : en:01:10:55.042
00:00:00.042                             : en:01:11:07.096
00:00:40.082                             : en:01:11:47.136
00:02:10.047                             : en:01:13:17.101
00:11:37.072                             : en:01:22:44.126
00:22:00.027                             : en:01:33:07.081
00:23:30.034                             : en:01:34:37.088

Other Files in this Torrent
04 - The Edge Of The Abyss.mkv
beta
Anime DDL+NZB mirror
Current Time: 20/06/2024 16:31



About/FAQs

Discord