File Size467.1 MB (489,793,878 bytes)
DownloadClickNUpload | Go4Up | Jheberg | MultiUp | OpenLoad | SolidFiles | Upfile.mobi
Sendspace: Part1, Part2
HashesCRC32: 2FEB8C8D, MD5: 5EE0DEA1912A027E1422D7023F1A4EFD, SHA1: B0E61A7FA0DB0DD407FEFAF8B7C58AFD73DF9F19, SHA256: 066C39A26CBB6A431362C1A881E4326B1BFE87A2F2F3B1D259C7BD75E0E0C776, ED2K: E67F9021E2EA5CE70824D26EC1CE5ACC
Screenshots
screenshotscreenshotscreenshotscreenshotscreenshot
Additional Info
General
Unique ID                                : 251035178320211456860121850003492279188 (0xBCDB9DE031270BBBAAC939D5D1F99394)
Complete name                            : 07 - The Unmovable Sovereign.mkv
Format                                   : Matroska
Format version                           : Version 4 / Version 2
File size                                : 467 MiB
Duration                                 : 23 min 41 s
Overall bit rate                         : 2 757 kb/s
Encoded date                             : UTC 2017-10-30 16:02:20
Writing application                      : mkvmerge v13.0.0 ('The Juggler') 32bit
Writing library                          : libebml v1.3.4 + libmatroska v1.4.5

Video
ID                                       : 1
Format                                   : AVC
Format/Info                              : Advanced Video Codec
Format profile                           : High 10@L3.1
Format settings, CABAC                   : Yes
Format settings, ReFrames                : 4 frames
Codec ID                                 : V_MPEG4/ISO/AVC
Duration                                 : 23 min 41 s
Bit rate                                 : 2 435 kb/s
Width                                    : 1 280 pixels
Height                                   : 720 pixels
Display aspect ratio                     : 16:9
Frame rate mode                          : Constant
Frame rate                               : 23.976 (24000/1001) FPS
Color space                              : YUV
Chroma subsampling                       : 4:2:0
Bit depth                                : 10 bits
Scan type                                : Progressive
Bits/(Pixel*Frame)                       : 0.110
Stream size                              : 412 MiB (88%)
Default                                  : Yes
Forced                                   : No

Audio
ID                                       : 2
Format                                   : AAC
Format/Info                              : Advanced Audio Codec
Format profile                           : LC
Codec ID                                 : A_AAC
Duration                                 : 23 min 41 s
Bit rate                                 : 320 kb/s
Channel(s)                               : 2 channels
Channel positions                        : Front: L R
Sampling rate                            : 48.0 kHz
Frame rate                               : 46.875 FPS (1024 spf)
Compression mode                         : Lossy
Delay relative to video                  : 17 ms
Stream size                              : 54.2 MiB (12%)
Language                                 : Japanese
Default                                  : Yes
Forced                                   : No

Menu
00:00:00.000                             : en:00:47:25.176
00:00:28.028                             : en:00:47:53.204
00:01:58.034                             : en:00:49:23.210
00:11:57.049                             : en:00:59:22.225
00:22:00.068                             : en:01:09:25.244
00:23:30.075                             : en:01:10:55.251

Other Files in this Torrent
07 - The Unmovable Sovereign.mkv
beta
Anime DDL+NZB mirror
Current Time: 17/06/2024 11:16



About/FAQs

Discord