File Size493.2 MB (517,122,246 bytes)
DownloadClickNUpload | Go4Up | Jheberg | MultiUp | OpenLoad | SolidFiles | Upfile.mobi
Sendspace: Part1, Part2
HashesCRC32: 768AADF4, MD5: E8C6D180299F0FCEB830315FEA17AB71, SHA1: D8DBAC0192E195BB67F399B8D2B382901036B7EE, SHA256: F4210B09547D028A337EB5C9D26AC8E27B7DCCBBE84A3EC8712A2BAF112F8964, ED2K: DB9ED6B551BB9D9B8822AD115A9D6D9D
Screenshots
screenshotscreenshotscreenshotscreenshotscreenshot
Additional Info
General
Unique ID                                : 212969125627228967655455676150660815166 (0xA0385C939F6DF6319A87D56B87FD593E)
Complete name                            : 11 - Nanachi.mkv
Format                                   : Matroska
Format version                           : Version 4 / Version 2
File size                                : 493 MiB
Duration                                 : 23 min 40 s
Overall bit rate                         : 2 911 kb/s
Encoded date                             : UTC 2017-12-28 19:21:08
Writing application                      : mkvmerge v13.0.0 ('The Juggler') 32bit
Writing library                          : libebml v1.3.4 + libmatroska v1.4.5

Video
ID                                       : 1
Format                                   : AVC
Format/Info                              : Advanced Video Codec
Format profile                           : High 10@L3.1
Format settings, CABAC                   : Yes
Format settings, ReFrames                : 4 frames
Codec ID                                 : V_MPEG4/ISO/AVC
Duration                                 : 23 min 40 s
Bit rate                                 : 2 589 kb/s
Width                                    : 1 280 pixels
Height                                   : 720 pixels
Display aspect ratio                     : 16:9
Frame rate mode                          : Constant
Frame rate                               : 23.976 (24000/1001) FPS
Color space                              : YUV
Chroma subsampling                       : 4:2:0
Bit depth                                : 10 bits
Scan type                                : Progressive
Bits/(Pixel*Frame)                       : 0.117
Stream size                              : 439 MiB (89%)
Default                                  : Yes
Forced                                   : No

Audio
ID                                       : 2
Format                                   : AAC
Format/Info                              : Advanced Audio Codec
Format profile                           : LC
Codec ID                                 : A_AAC
Duration                                 : 23 min 40 s
Bit rate                                 : 320 kb/s
Channel(s)                               : 2 channels
Channel positions                        : Front: L R
Sampling rate                            : 48.0 kHz
Frame rate                               : 46.875 FPS (1024 spf)
Compression mode                         : Lossy
Delay relative to video                  : 9 ms
Stream size                              : 54.2 MiB (11%)
Language                                 : Japanese
Default                                  : Yes
Forced                                   : No

Menu
00:00:00.000                             : en:01:10:55.084
00:00:00.001                             : en:01:11:07.180
00:03:32.922                             : en:01:14:40.101
00:05:02.886                             : en:01:16:10.065
00:13:37.943                             : en:01:24:45.122
00:21:59.902                             : en:01:33:07.081
00:23:29.909                             : en:01:34:37.088

Other Files in this Torrent
11 - Nanachi.mkv
beta
Anime DDL+NZB mirror
Current Time: 17/06/2024 11:39



About/FAQs

Discord