File Size569.3 MB (596,939,161 bytes)
DownloadClickNUpload | Go4Up | Jheberg | MultiUp | OpenLoad | Upfile.mobi
Sendspace: Part1, Part2
SolidFiles: Part1, Part2
HashesCRC32: 670571E5, MD5: 07CBD3D8E521B7630938095233709AFB, SHA1: 561B47F52A422C4CF1D8CF11EB3539F48D4552CF, SHA256: C29FF1BBAF0F99582A119BDB74211B96EE705084E2370B710B4E8493A7943839, ED2K: 6A07B67C32194C633B431E081E27D27C
Screenshots
screenshotscreenshotscreenshotscreenshotscreenshot
Additional Info
General
Unique ID                                : 198433913657809342715134431434471312090 (0x9548FB4C13095629991540C2C95B0ADA)
Complete name                            : 02 - Ressurection Festival.mkv
Format                                   : Matroska
Format version                           : Version 4 / Version 2
File size                                : 569 MiB
Duration                                 : 23 min 42 s
Overall bit rate                         : 3 358 kb/s
Encoded date                             : UTC 2017-10-29 21:38:48
Writing application                      : mkvmerge v13.0.0 ('The Juggler') 32bit
Writing library                          : libebml v1.3.4 + libmatroska v1.4.5

Video
ID                                       : 1
Format                                   : AVC
Format/Info                              : Advanced Video Codec
Format profile                           : High 10@L3.1
Format settings, CABAC                   : Yes
Format settings, ReFrames                : 4 frames
Codec ID                                 : V_MPEG4/ISO/AVC
Duration                                 : 23 min 42 s
Bit rate                                 : 3 036 kb/s
Width                                    : 1 280 pixels
Height                                   : 720 pixels
Display aspect ratio                     : 16:9
Frame rate mode                          : Constant
Frame rate                               : 23.976 (24000/1001) FPS
Color space                              : YUV
Chroma subsampling                       : 4:2:0
Bit depth                                : 10 bits
Scan type                                : Progressive
Bits/(Pixel*Frame)                       : 0.137
Stream size                              : 515 MiB (90%)
Default                                  : Yes
Forced                                   : No

Audio
ID                                       : 2
Format                                   : AAC
Format/Info                              : Advanced Audio Codec
Format profile                           : LC
Codec ID                                 : A_AAC
Duration                                 : 23 min 42 s
Bit rate                                 : 320 kb/s
Channel(s)                               : 2 channels
Channel positions                        : Front: L R
Sampling rate                            : 48.0 kHz
Frame rate                               : 46.875 FPS (1024 spf)
Compression mode                         : Lossy
Delay relative to video                  : 1 ms
Stream size                              : 54.2 MiB (10%)
Language                                 : Japanese
Default                                  : Yes
Forced                                   : No

Menu
00:00:00.000                             : en:00:23:30.951
00:00:00.042                             : en:00:23:42.963
00:00:35.077                             : en:00:24:17.998
00:02:05.042                             : en:00:25:47.963
00:11:46.081                             : en:00:35:29.002
00:22:00.028                             : en:00:45:42.949
00:23:30.034                             : en:00:47:12.955

Other Files in this Torrent
02 - Ressurection Festival.mkv
beta
Anime DDL+NZB mirror
Current Time: 20/06/2024 15:51



About/FAQs

Discord