File Size459.4 MB (481,678,343 bytes)
DownloadClickNUpload | Go4Up | Jheberg | MultiUp | OpenLoad | SolidFiles | Upfile.mobi
Sendspace: Part1, Part2
HashesCRC32: 8C63D156, MD5: 9371951E4FAC079319886EA0D1BDEB8B, SHA1: 8F3227C9028816CE557EF59504B1384FF581A708, SHA256: 8B50F7D882D3F7BEAB169CB9F67F7F4DD98C3217578BC9EDAF4E740B51FE9616, ED2K: F23B596AA19D2A428BB9A1938469975A
Screenshots
screenshotscreenshotscreenshotscreenshotscreenshot
Additional Info
General
Unique ID                                : 184270592268174830303643086601983547154 (0x8AA139A38E7A0FBAB74A690CAF26D712)
Complete name                            : 03 - Departure.mkv
Format                                   : Matroska
Format version                           : Version 4 / Version 2
File size                                : 459 MiB
Duration                                 : 23 min 42 s
Overall bit rate                         : 2 710 kb/s
Encoded date                             : UTC 2017-10-29 21:38:48
Writing application                      : mkvmerge v13.0.0 ('The Juggler') 32bit
Writing library                          : libebml v1.3.4 + libmatroska v1.4.5

Video
ID                                       : 1
Format                                   : AVC
Format/Info                              : Advanced Video Codec
Format profile                           : High 10@L3.1
Format settings, CABAC                   : Yes
Format settings, ReFrames                : 4 frames
Codec ID                                 : V_MPEG4/ISO/AVC
Duration                                 : 23 min 42 s
Bit rate                                 : 2 387 kb/s
Width                                    : 1 280 pixels
Height                                   : 720 pixels
Display aspect ratio                     : 16:9
Frame rate mode                          : Constant
Frame rate                               : 23.976 (24000/1001) FPS
Color space                              : YUV
Chroma subsampling                       : 4:2:0
Bit depth                                : 10 bits
Scan type                                : Progressive
Bits/(Pixel*Frame)                       : 0.108
Stream size                              : 405 MiB (88%)
Default                                  : Yes
Forced                                   : No

Audio
ID                                       : 2
Format                                   : AAC
Format/Info                              : Advanced Audio Codec
Format profile                           : LC
Codec ID                                 : A_AAC
Duration                                 : 23 min 42 s
Bit rate                                 : 320 kb/s
Channel(s)                               : 2 channels
Channel positions                        : Front: L R
Sampling rate                            : 48.0 kHz
Frame rate                               : 46.875 FPS (1024 spf)
Compression mode                         : Lossy
Delay relative to video                  : 14 ms
Stream size                              : 54.3 MiB (12%)
Language                                 : Japanese
Default                                  : Yes
Forced                                   : No

Menu
00:00:00.000                             : en:00:47:25.009
00:01:26.002                             : en:00:48:51.011
00:02:56.051                             : en:00:50:21.060
00:13:28.057                             : en:01:00:53.066
00:18:21.308                             : en:01:05:46.317
00:23:30.033                             : en:01:10:55.042

Other Files in this Torrent
03 - Departure.mkv
beta
Anime DDL+NZB mirror
Current Time: 17/06/2024 10:59



About/FAQs

Discord