[Pn8] Tokyo Ghoul S01E08 Circular [Funi-DL] [720p] [56F234DA].mp4


File Size628.0 MB (658,536,246 bytes)
DownloadGo4Up | Jheberg | MultiUp
Sendspace: Part1, Part2, Part3
SolidFiles: Part1, Part2
HashesCRC32: 56F234DA, MD5: B32C252120D969EE25575F7506395BD8, SHA1: 61897C4989EFAFEE1B555E71E2EB9943B19C7E3A, SHA256: 1BF616DA7FEBF2502424FF204EAB4940420B602B6C4E660D37E0DA3BDF5C21DC, ED2K: BA1CCDDABBCC626B12D504B3913DB7DD
Screenshots
screenshotscreenshotscreenshotscreenshotscreenshot
Additional Info
General
Complete name                            : [Pn8] Tokyo Ghoul S01E08 Circular [Funi-DL] [720p] [56F234DA].mp4
Format                                   : MPEG-4
Format profile                           : Base Media / Version 2
Codec ID                                 : mp42
File size                                : 628 MiB
Duration                                 : 24mn 11s
Overall bit rate mode                    : Variable
Overall bit rate                         : 3 630 Kbps
Collection                               : Tokyo Ghoul
Season                                   : 1
Album                                    : Tokyo Ghoul, Season 1
Album/Performer                          : Tokyo Ghoul
Part                                     : 8
Part/Position                            : 1
Part/Total                               : 1
Track name                               : Circular
Track name/Position                      : 8
Performer                                : Tokyo Ghoul
Genre                                    : Anime, Dubbed
ContentType                              : TV Show
Description                              : Touka sets out to lure the ghoul investigators, but before she can strike, she finds that Hinami has run away. When Touka and Kaneki go out looking for her, they find themselves face to face with Amon and Mado, who has a few surpises of his own for them. / In modern day Tokyo, society lives in fear of Ghouls: mysterious creatures who look exactly like humans -- yet hunger insatiably for their flesh. None of this matters to Ken Kaneki, a bookish and ordinary young man, until a dark and violent encounter turns him into the first ever Ghoul-human half breed. Trapped between two worlds, Ken must survive the violent conflicts of warring Ghoul factions, while attempting to learn more about Ghoul society, his newfound powers, and the fine line between man and monster.
Recorded date                            : 2015-09-01
Encoded date                             : UTC 2015-09-01 00:11:09
Tagged date                              : UTC 2015-09-02 00:38:31
Writing application                      : none / Pikanet128
Cover                                    : Yes
Comment                                  : Source=Funicom-DL;
PodcastURL                               : Funicom-DL
LongDescription                          : Touka sets out to lure the ghoul investigators, but before she can strike, she finds that Hinami has run away. When Touka and Kaneki go out looking for her, they find themselves face to face with Amon and Mado, who has a few surpises of his own for them.
Part_ID                                  : S01E08
AppleStoreCatalogID                      : 59569
HDVideo                                  : Yes
AppleStoreAccount                        : Pikanet128
ContentRating                            : us-tv|TV-MA|600|

Video
ID                                       : 1
Format                                   : AVC
Format/Info                              : Advanced Video Codec
Format profile                           : High@L3.1
Format settings, CABAC                   : Yes
Format settings, ReFrames                : 2 frames
Codec ID                                 : avc1
Codec ID/Info                            : Advanced Video Coding
Duration                                 : 24mn 11s
Bit rate mode                            : Constant
Bit rate                                 : 3 500 Kbps
Width                                    : 1 280 pixels
Height                                   : 720 pixels
Display aspect ratio                     : 16:9
Frame rate mode                          : Constant
Frame rate                               : 23.976 fps
Color space                              : YUV
Chroma subsampling                       : 4:2:0
Bit depth                                : 8 bits
Scan type                                : Progressive
Bits/(Pixel*Frame)                       : 0.158
Stream size                              : 605 MiB (96%)
Language                                 : English
Encoded date                             : UTC 2015-09-01 00:11:09
Tagged date                              : UTC 2015-09-01 00:11:09
Color primaries                          : BT.709
Transfer characteristics                 : BT.709
Matrix coefficients                      : BT.709
Color range                              : Limited

Audio
ID                                       : 2
Format                                   : AAC
Format/Info                              : Advanced Audio Codec
Format profile                           : LC
Codec ID                                 : 40
Duration                                 : 24mn 11s
Bit rate mode                            : Variable
Bit rate                                 : 126 Kbps
Maximum bit rate                         : 420 Kbps
Channel(s)                               : 2 channels
Channel positions                        : Front: L R
Sampling rate                            : 44.1 KHz
Compression mode                         : Lossy
Stream size                              : 21.7 MiB (3%)
Language                                 : English
Encoded date                             : UTC 2015-09-01 00:11:09
Tagged date                              : UTC 2015-09-01 00:11:09
mdhd_Duration                            : 1451178

Other Files in this Torrent
[Pn8] Tokyo Ghoul S01E08 Circular [Funi-DL] [720p] [56F234DA].mp4
beta
Anime DDL+NZB mirror
Current Time: 27/11/2021 17:17



About/FAQs

Discord