[Pn8] Tokyo Ghoul S01E07 Captivity [Funi-DL] [720p] [B8163312].mp4


File Size629.3 MB (659,862,961 bytes)
DownloadGo4Up | Jheberg | MultiUp
Sendspace: Part1, Part2, Part3
SolidFiles: Part1, Part2
HashesCRC32: B8163312, MD5: 00021DF3E719562FB8D5366DF358B483, SHA1: EDE17E7E5F0D06F2A0101129FB6A02F1A3B15D35, SHA256: F9CF4FE1A3988A63815686B2632D558328420EC979239BFBDF107C27BF840F93, ED2K: 38A9835F78A334392D3F52692DBB5C84
Screenshots
screenshotscreenshotscreenshotscreenshotscreenshot
Additional Info
General
Complete name                            : [Pn8] Tokyo Ghoul S01E07 Captivity [Funi-DL] [720p] [B8163312].mp4
Format                                   : MPEG-4
Format profile                           : Base Media / Version 2
Codec ID                                 : mp42
File size                                : 629 MiB
Duration                                 : 24mn 12s
Overall bit rate mode                    : Variable
Overall bit rate                         : 3 635 Kbps
Collection                               : Tokyo Ghoul
Season                                   : 1
Album                                    : Tokyo Ghoul, Season 1
Album/Performer                          : Tokyo Ghoul
Part                                     : 7
Part/Position                            : 1
Part/Total                               : 1
Track name                               : Captivity
Track name/Position                      : 7
Performer                                : Tokyo Ghoul
Genre                                    : Anime, Dubbed
ContentType                              : TV Show
Description                              : After Kaneki and Hinami witness Ryoko's fate, the personnel at Anteiku are grieved, and Touka decides to take matters with the investigators into her own hands. Kaneki is fed up with not being able to do anything, and makes up his mind to become involved. / In modern day Tokyo, society lives in fear of Ghouls: mysterious creatures who look exactly like humans -- yet hunger insatiably for their flesh. None of this matters to Ken Kaneki, a bookish and ordinary young man, until a dark and violent encounter turns him into the first ever Ghoul-human half breed. Trapped between two worlds, Ken must survive the violent conflicts of warring Ghoul factions, while attempting to learn more about Ghoul society, his newfound powers, and the fine line between man and monster.
Recorded date                            : 2015-09-01
Encoded date                             : UTC 2015-08-31 22:23:00
Tagged date                              : UTC 2015-09-02 00:38:31
Writing application                      : none / Pikanet128
Cover                                    : Yes
Comment                                  : Source=Funicom-DL;
PodcastURL                               : Funicom-DL
LongDescription                          : After Kaneki and Hinami witness Ryoko's fate, the personnel at Anteiku are grieved, and Touka decides to take matters with the investigators into her own hands. Kaneki is fed up with not being able to do anything, and makes up his mind to become involved.
Part_ID                                  : S01E07
AppleStoreCatalogID                      : 59568
HDVideo                                  : Yes
AppleStoreAccount                        : Pikanet128
ContentRating                            : us-tv|TV-MA|600|

Video
ID                                       : 1
Format                                   : AVC
Format/Info                              : Advanced Video Codec
Format profile                           : High@L3.1
Format settings, CABAC                   : Yes
Format settings, ReFrames                : 2 frames
Codec ID                                 : avc1
Codec ID/Info                            : Advanced Video Coding
Duration                                 : 24mn 12s
Bit rate mode                            : Constant
Bit rate                                 : 3 500 Kbps
Width                                    : 1 280 pixels
Height                                   : 720 pixels
Display aspect ratio                     : 16:9
Frame rate mode                          : Constant
Frame rate                               : 23.976 fps
Color space                              : YUV
Chroma subsampling                       : 4:2:0
Bit depth                                : 8 bits
Scan type                                : Progressive
Bits/(Pixel*Frame)                       : 0.158
Stream size                              : 606 MiB (96%)
Language                                 : English
Encoded date                             : UTC 2015-08-31 22:23:00
Tagged date                              : UTC 2015-08-31 22:23:00
Color primaries                          : BT.709
Transfer characteristics                 : BT.709
Matrix coefficients                      : BT.709
Color range                              : Limited

Audio
ID                                       : 2
Format                                   : AAC
Format/Info                              : Advanced Audio Codec
Format profile                           : LC
Codec ID                                 : 40
Duration                                 : 24mn 12s
Bit rate mode                            : Variable
Bit rate                                 : 126 Kbps
Maximum bit rate                         : 433 Kbps
Channel(s)                               : 2 channels
Channel positions                        : Front: L R
Sampling rate                            : 44.1 KHz
Compression mode                         : Lossy
Stream size                              : 21.8 MiB (3%)
Language                                 : English
Encoded date                             : UTC 2015-08-31 22:23:00
Tagged date                              : UTC 2015-08-31 22:23:00
mdhd_Duration                            : 1452130

Other Files in this Torrent
[Pn8] Tokyo Ghoul S01E07 Captivity [Funi-DL] [720p] [B8163312].mp4
beta
Anime DDL+NZB mirror
Current Time: 27/11/2021 18:18



About/FAQs

Discord