[Pn8] Tokyo Ghoul S01E04 Supper [Funi-DL] [720p] [93109B08].mp4


File Size626.3 MB (656,766,618 bytes)
DownloadGo4Up | Jheberg | MultiUp
Sendspace: Part1, Part2, Part3
SolidFiles: Part1, Part2
HashesCRC32: 93109B08, MD5: F54CA03BADD4FB072F79E9240C262115, SHA1: 5E5C78F9B816C1282A74967AE76BB7CB7B454345, SHA256: BF71FB24774C8012B3F9AA2021347B154F16494CE506A8696F3AA02290B72E80, ED2K: 218A6B5E9ED0E8E0FE0D6CD8153ACDF3
Screenshots
screenshotscreenshotscreenshotscreenshotscreenshot
Additional Info
General
Complete name                            : [Pn8] Tokyo Ghoul S01E04 Supper [Funi-DL] [720p] [93109B08].mp4
Format                                   : MPEG-4
Format profile                           : Base Media / Version 2
Codec ID                                 : mp42
File size                                : 626 MiB
Duration                                 : 24mn 6s
Overall bit rate mode                    : Variable
Overall bit rate                         : 3 633 Kbps
Collection                               : Tokyo Ghoul
Season                                   : 1
Album                                    : Tokyo Ghoul, Season 1
Album/Performer                          : Tokyo Ghoul
Part                                     : 4
Part/Position                            : 1
Part/Total                               : 1
Track name                               : Supper
Track name/Position                      : 4
Performer                                : Tokyo Ghoul
Genre                                    : Anime, Dubbed
ContentType                              : TV Show
Description                              : Kaneki starts receiving self-defense lessons from Yomo. He meets Itori, who runs her own bar, and is friends with Uta and Yomo. Kaneki is befriended by Tsukiyama, a ghoul who knew Rize, who also enjoys reading, and possesses other, more epicurean tastes. / In modern day Tokyo, society lives in fear of Ghouls: mysterious creatures who look exactly like humans -- yet hunger insatiably for their flesh. None of this matters to Ken Kaneki, a bookish and ordinary young man, until a dark and violent encounter turns him into the first ever Ghoul-human half breed. Trapped between two worlds, Ken must survive the violent conflicts of warring Ghoul factions, while attempting to learn more about Ghoul society, his newfound powers, and the fine line between man and monster.
Recorded date                            : 2015-09-01
Encoded date                             : UTC 2015-08-31 21:23:11
Tagged date                              : UTC 2015-09-02 00:38:31
Writing application                      : none / Pikanet128
Cover                                    : Yes
Comment                                  : Source=Funicom-DL;
PodcastURL                               : Funicom-DL
LongDescription                          : Kaneki starts receiving self-defense lessons from Yomo. He meets Itori, who runs her own bar, and is friends with Uta and Yomo. Kaneki is befriended by Tsukiyama, a ghoul who knew Rize, who also enjoys reading, and possesses other, more epicurean tastes.
Part_ID                                  : S01E04
AppleStoreCatalogID                      : 59565
HDVideo                                  : Yes
AppleStoreAccount                        : Pikanet128
ContentRating                            : us-tv|TV-MA|600|

Video
ID                                       : 1
Format                                   : AVC
Format/Info                              : Advanced Video Codec
Format profile                           : High@L3.1
Format settings, CABAC                   : Yes
Format settings, ReFrames                : 2 frames
Codec ID                                 : avc1
Codec ID/Info                            : Advanced Video Coding
Duration                                 : 24mn 6s
Source duration                          : 24mn 6s
Bit rate mode                            : Constant
Bit rate                                 : 3 500 Kbps
Width                                    : 1 280 pixels
Height                                   : 720 pixels
Display aspect ratio                     : 16:9
Frame rate mode                          : Constant
Frame rate                               : 23.976 fps
Color space                              : YUV
Chroma subsampling                       : 4:2:0
Bit depth                                : 8 bits
Scan type                                : Progressive
Bits/(Pixel*Frame)                       : 0.158
Stream size                              : 604 MiB (96%)
Source stream size                       : 604 MiB (96%)
Language                                 : English
Encoded date                             : UTC 2015-08-31 21:23:11
Tagged date                              : UTC 2015-08-31 21:23:11
Color primaries                          : BT.709
Transfer characteristics                 : BT.709
Matrix coefficients                      : BT.709
Color range                              : Limited

Audio
ID                                       : 2
Format                                   : AAC
Format/Info                              : Advanced Audio Codec
Format profile                           : LC
Codec ID                                 : 40
Duration                                 : 24mn 6s
Bit rate mode                            : Variable
Bit rate                                 : 126 Kbps
Maximum bit rate                         : 529 Kbps
Channel(s)                               : 2 channels
Channel positions                        : Front: L R
Sampling rate                            : 44.1 KHz
Compression mode                         : Lossy
Stream size                              : 21.7 MiB (3%)
Language                                 : English
Encoded date                             : UTC 2015-08-31 21:23:11
Tagged date                              : UTC 2015-08-31 21:23:11
mdhd_Duration                            : 1446208

Other Files in this Torrent
[Pn8] Tokyo Ghoul S01E04 Supper [Funi-DL] [720p] [93109B08].mp4
beta
Anime DDL+NZB mirror
Current Time: 26/01/2022 08:05



About/FAQs

Discord