[Pn8] Tokyo Ghoul S01E06 Cloudburst [Funi-DL] [720p] [0023CB42].mp4


File Size626.7 MB (657,139,020 bytes)
DownloadGo4Up | Jheberg | MultiUp
Sendspace: Part1, Part2, Part3
SolidFiles: Part1, Part2
HashesCRC32: 0023CB42, MD5: 91D80E40E8D58D71892ABA9DF2D8719E, SHA1: 2AD0C1ADD18E6C698B56BBDA7755D8E9E308084C, SHA256: 7CFDF4B7A000DAC0930EF103AF537B1D6212C5EE6F654E31CC62FC3CBC88C85D, ED2K: 66CD4A6FB572496F28F5AD2304A7BC1E
Screenshots
screenshotscreenshotscreenshotscreenshotscreenshot
Additional Info
General
Complete name                            : [Pn8] Tokyo Ghoul S01E06 Cloudburst [Funi-DL] [720p] [0023CB42].mp4
Format                                   : MPEG-4
Format profile                           : Base Media / Version 2
Codec ID                                 : mp42
File size                                : 627 MiB
Duration                                 : 24mn 6s
Overall bit rate mode                    : Variable
Overall bit rate                         : 3 635 Kbps
Collection                               : Tokyo Ghoul
Season                                   : 1
Album                                    : Tokyo Ghoul, Season 1
Album/Performer                          : Tokyo Ghoul
Part                                     : 6
Part/Position                            : 1
Part/Total                               : 1
Track name                               : Cloudburst
Track name/Position                      : 6
Performer                                : Tokyo Ghoul
Genre                                    : Anime, Dubbed
ContentType                              : TV Show
Description                              : The fight against Tsukiyama is resolved, but Touka wants to kill Kimi, now that it's clear she knows that Nishiki and Kaneki are ghouls. Meanwhile, Hinami is eager to see her father again after being apart for so long, and acts out when she is unable. / In modern day Tokyo, society lives in fear of Ghouls: mysterious creatures who look exactly like humans -- yet hunger insatiably for their flesh. None of this matters to Ken Kaneki, a bookish and ordinary young man, until a dark and violent encounter turns him into the first ever Ghoul-human half breed. Trapped between two worlds, Ken must survive the violent conflicts of warring Ghoul factions, while attempting to learn more about Ghoul society, his newfound powers, and the fine line between man and monster.
Recorded date                            : 2015-09-01
Encoded date                             : UTC 2015-08-31 23:59:55
Tagged date                              : UTC 2015-09-02 00:38:31
Writing application                      : none / Pikanet128
Cover                                    : Yes
Comment                                  : Source=Funicom-DL;
PodcastURL                               : Funicom-DL
LongDescription                          : The fight against Tsukiyama is resolved, but Touka wants to kill Kimi, now that it's clear she knows that Nishiki and Kaneki are ghouls. Meanwhile, Hinami is eager to see her father again after being apart for so long, and acts out when she is unable.
Part_ID                                  : S01E06
AppleStoreCatalogID                      : 59567
HDVideo                                  : Yes
AppleStoreAccount                        : Pikanet128
ContentRating                            : us-tv|TV-MA|600|

Video
ID                                       : 1
Format                                   : AVC
Format/Info                              : Advanced Video Codec
Format profile                           : High@L3.1
Format settings, CABAC                   : Yes
Format settings, ReFrames                : 2 frames
Codec ID                                 : avc1
Codec ID/Info                            : Advanced Video Coding
Duration                                 : 24mn 6s
Bit rate mode                            : Constant
Bit rate                                 : 3 500 Kbps
Width                                    : 1 280 pixels
Height                                   : 720 pixels
Display aspect ratio                     : 16:9
Frame rate mode                          : Constant
Frame rate                               : 23.976 fps
Color space                              : YUV
Chroma subsampling                       : 4:2:0
Bit depth                                : 8 bits
Scan type                                : Progressive
Bits/(Pixel*Frame)                       : 0.158
Stream size                              : 604 MiB (96%)
Language                                 : English
Encoded date                             : UTC 2015-08-31 23:59:55
Tagged date                              : UTC 2015-08-31 23:59:55
Color primaries                          : BT.709
Transfer characteristics                 : BT.709
Matrix coefficients                      : BT.709
Color range                              : Limited

Audio
ID                                       : 2
Format                                   : AAC
Format/Info                              : Advanced Audio Codec
Format profile                           : LC
Codec ID                                 : 40
Duration                                 : 24mn 6s
Bit rate mode                            : Variable
Bit rate                                 : 126 Kbps
Maximum bit rate                         : 280 Kbps
Channel(s)                               : 2 channels
Channel positions                        : Front: L R
Sampling rate                            : 44.1 KHz
Compression mode                         : Lossy
Stream size                              : 21.7 MiB (3%)
Language                                 : English
Encoded date                             : UTC 2015-08-31 23:59:55
Tagged date                              : UTC 2015-08-31 23:59:55
mdhd_Duration                            : 1446162

Other Files in this Torrent
[Pn8] Tokyo Ghoul S01E06 Cloudburst [Funi-DL] [720p] [0023CB42].mp4
beta
Anime DDL+NZB mirror
Current Time: 27/11/2021 17:21



About/FAQs

Discord