[Pn8] Tokyo Ghoul S01E11 High Spirits [Funi-DL] [720p] [1ABF901C].mp4


File Size628.5 MB (659,018,630 bytes)
DownloadGo4Up | Jheberg | MultiUp
Sendspace: Part1, Part2, Part3
SolidFiles: Part1, Part2
HashesCRC32: 1ABF901C, MD5: ADFF608217E0CE83B97A1236D93B3046, SHA1: A94FCBA646A2AEB73EB1CCCD5C15F59A574FAB37, SHA256: 18D82EABDC4B14ABD6CB88B3ACD970035293E8EF9F94B3FF5B7CD69B8F1F2250, ED2K: 8F5E883D6C7B38688B080E7C154B0847
Screenshots
screenshotscreenshotscreenshotscreenshotscreenshot
Additional Info
General
Complete name                            : [Pn8] Tokyo Ghoul S01E11 High Spirits [Funi-DL] [720p] [1ABF901C].mp4
Format                                   : MPEG-4
Format profile                           : Base Media / Version 2
Codec ID                                 : mp42
File size                                : 628 MiB
Duration                                 : 24mn 11s
Overall bit rate mode                    : Variable
Overall bit rate                         : 3 633 Kbps
Collection                               : Tokyo Ghoul
Season                                   : 1
Album                                    : Tokyo Ghoul, Season 1
Album/Performer                          : Tokyo Ghoul
Part                                     : 11
Part/Position                            : 1
Part/Total                               : 1
Track name                               : High Spirits
Track name/Position                      : 11
Performer                                : Tokyo Ghoul
Genre                                    : Anime, Dubbed
ContentType                              : TV Show
Description                              : Kaneki is held captive by Yamori, who practices his torturous craft on him. The police and CCG move in to deal with Aogiri Tree, who have made an 11th Ward shopping mall their headquarters. In all the commotion, the Anteiku team tries to rescue Kaneki. / In modern day Tokyo, society lives in fear of Ghouls: mysterious creatures who look exactly like humans -- yet hunger insatiably for their flesh. None of this matters to Ken Kaneki, a bookish and ordinary young man, until a dark and violent encounter turns him into the first ever Ghoul-human half breed. Trapped between two worlds, Ken must survive the violent conflicts of warring Ghoul factions, while attempting to learn more about Ghoul society, his newfound powers, and the fine line between man and monster.
Recorded date                            : 2015-09-01
Encoded date                             : UTC 2015-09-01 00:17:07
Tagged date                              : UTC 2015-09-02 00:38:31
Writing application                      : none / Pikanet128
Cover                                    : Yes
Comment                                  : Source=Funicom-DL;
PodcastURL                               : Funicom-DL
LongDescription                          : Kaneki is held captive by Yamori, who practices his torturous craft on him. The police and CCG move in to deal with Aogiri Tree, who have made an 11th Ward shopping mall their headquarters. In all the commotion, the Anteiku team tries to rescue Kaneki.
Part_ID                                  : S01E11
AppleStoreCatalogID                      : 59572
HDVideo                                  : Yes
AppleStoreAccount                        : Pikanet128
ContentRating                            : us-tv|TV-MA|600|

Video
ID                                       : 1
Format                                   : AVC
Format/Info                              : Advanced Video Codec
Format profile                           : High@L3.1
Format settings, CABAC                   : Yes
Format settings, ReFrames                : 2 frames
Codec ID                                 : avc1
Codec ID/Info                            : Advanced Video Coding
Duration                                 : 24mn 11s
Bit rate mode                            : Constant
Bit rate                                 : 3 500 Kbps
Width                                    : 1 280 pixels
Height                                   : 720 pixels
Display aspect ratio                     : 16:9
Frame rate mode                          : Constant
Frame rate                               : 23.976 fps
Color space                              : YUV
Chroma subsampling                       : 4:2:0
Bit depth                                : 8 bits
Scan type                                : Progressive
Bits/(Pixel*Frame)                       : 0.158
Stream size                              : 606 MiB (96%)
Language                                 : English
Encoded date                             : UTC 2015-09-01 00:17:07
Tagged date                              : UTC 2015-09-01 00:17:07
Color primaries                          : BT.709
Transfer characteristics                 : BT.709
Matrix coefficients                      : BT.709
Color range                              : Limited

Audio
ID                                       : 2
Format                                   : AAC
Format/Info                              : Advanced Audio Codec
Format profile                           : LC
Codec ID                                 : 40
Duration                                 : 24mn 11s
Bit rate mode                            : Variable
Bit rate                                 : 126 Kbps
Maximum bit rate                         : 284 Kbps
Channel(s)                               : 2 channels
Channel positions                        : Front: L R
Sampling rate                            : 44.1 KHz
Compression mode                         : Lossy
Stream size                              : 21.7 MiB (3%)
Language                                 : English
Encoded date                             : UTC 2015-09-01 00:17:07
Tagged date                              : UTC 2015-09-01 00:17:07
mdhd_Duration                            : 1451294

Other Files in this Torrent
[Pn8] Tokyo Ghoul S01E11 High Spirits [Funi-DL] [720p] [1ABF901C].mp4
beta
Anime DDL+NZB mirror
Current Time: 27/11/2021 17:24



About/FAQs

Discord