[Pn8] Tokyo Ghoul S01E03 Dove [Funi-DL] [720p] [FDE29508].mp4


File Size625.9 MB (656,293,842 bytes)
DownloadGo4Up | Jheberg | MultiUp
Sendspace: Part1, Part2, Part3
SolidFiles: Part1, Part2
HashesCRC32: FDE29508, MD5: 4000EBC7056041F7724D840E2B0D1337, SHA1: 3C217331A7436110F2476F128B4F27E2E2F4B519, SHA256: 959F2E681EAE67697AD9A6C7FABEC1435F5B4E2F7C87FCFE12B8C60582216245, ED2K: 97B30ACCD476B60C340D874D4B32B5DE
Screenshots
screenshotscreenshotscreenshotscreenshotscreenshot
Additional Info
General
Complete name                            : [Pn8] Tokyo Ghoul S01E03 Dove [Funi-DL] [720p] [FDE29508].mp4
Format                                   : MPEG-4
Format profile                           : Base Media / Version 2
Codec ID                                 : mp42
File size                                : 626 MiB
Duration                                 : 24mn 6s
Overall bit rate mode                    : Variable
Overall bit rate                         : 3 630 Kbps
Collection                               : Tokyo Ghoul
Season                                   : 1
Album                                    : Tokyo Ghoul, Season 1
Album/Performer                          : Tokyo Ghoul
Part                                     : 3
Part/Position                            : 1
Part/Total                               : 1
Track name                               : Dove
Track name/Position                      : 3
Performer                                : Tokyo Ghoul
Genre                                    : Anime, Dubbed
ContentType                              : TV Show
Description                              : Yoshimura teaches Kaneki more about how to blend in with mankind, and takes in a mother and daughter needing protection. Two ghoul investigators, Mado and Amon, are assigned to the 20th Ward. In response, Touka takes Kaneki out to have a mask made for ... / In modern day Tokyo, society lives in fear of Ghouls: mysterious creatures who look exactly like humans -- yet hunger insatiably for their flesh. None of this matters to Ken Kaneki, a bookish and ordinary young man, until a dark and violent encounter turns him into the first ever Ghoul-human half breed. Trapped between two worlds, Ken must survive the violent conflicts of warring Ghoul factions, while attempting to learn more about Ghoul society, his newfound powers, and the fine line between man and monster.
Recorded date                            : 2015-09-01
Encoded date                             : UTC 2015-08-31 20:58:24
Tagged date                              : UTC 2015-09-02 00:38:31
Writing application                      : none / Pikanet128
Cover                                    : Yes
Comment                                  : Source=Funicom-DL;
PodcastURL                               : Funicom-DL
LongDescription                          : Yoshimura teaches Kaneki more about how to blend in with mankind, and takes in a mother and daughter needing protection. Two ghoul investigators, Mado and Amon, are assigned to the 20th Ward. In response, Touka takes Kaneki out to have a mask made for him.
Part_ID                                  : S01E03
AppleStoreCatalogID                      : 59564
HDVideo                                  : Yes
AppleStoreAccount                        : Pikanet128
ContentRating                            : us-tv|TV-MA|600|

Video
ID                                       : 1
Format                                   : AVC
Format/Info                              : Advanced Video Codec
Format profile                           : High@L3.1
Format settings, CABAC                   : Yes
Format settings, ReFrames                : 2 frames
Codec ID                                 : avc1
Codec ID/Info                            : Advanced Video Coding
Duration                                 : 24mn 6s
Source duration                          : 24mn 6s
Bit rate mode                            : Constant
Bit rate                                 : 3 500 Kbps
Width                                    : 1 280 pixels
Height                                   : 720 pixels
Display aspect ratio                     : 16:9
Frame rate mode                          : Constant
Frame rate                               : 23.976 fps
Color space                              : YUV
Chroma subsampling                       : 4:2:0
Bit depth                                : 8 bits
Scan type                                : Progressive
Bits/(Pixel*Frame)                       : 0.158
Stream size                              : 603 MiB (96%)
Source stream size                       : 603 MiB (96%)
Language                                 : English
Encoded date                             : UTC 2015-08-31 20:58:24
Tagged date                              : UTC 2015-08-31 20:58:24
Color primaries                          : BT.709
Transfer characteristics                 : BT.709
Matrix coefficients                      : BT.709
Color range                              : Limited

Audio
ID                                       : 2
Format                                   : AAC
Format/Info                              : Advanced Audio Codec
Format profile                           : LC
Codec ID                                 : 40
Duration                                 : 24mn 6s
Bit rate mode                            : Variable
Bit rate                                 : 126 Kbps
Maximum bit rate                         : 349 Kbps
Channel(s)                               : 2 channels
Channel positions                        : Front: L R
Sampling rate                            : 44.1 KHz
Compression mode                         : Lossy
Stream size                              : 21.7 MiB (3%)
Language                                 : English
Encoded date                             : UTC 2015-08-31 20:58:24
Tagged date                              : UTC 2015-08-31 20:58:24
mdhd_Duration                            : 1446208

Other Files in this Torrent
[Pn8] Tokyo Ghoul S01E03 Dove [Funi-DL] [720p] [FDE29508].mp4
beta
Anime DDL+NZB mirror
Current Time: 27/11/2021 18:00



About/FAQs

Discord