[Pn8] Tokyo Ghoul S01E05 Scars [Funi-DL] [720p] [0DCFB9F0].mp4


File Size628.1 MB (658,634,957 bytes)
DownloadGo4Up | Jheberg | MultiUp
Sendspace: Part1, Part2, Part3
SolidFiles: Part1, Part2
HashesCRC32: 0DCFB9F0, MD5: D367DE12DAF296BC782A6243C34833D8, SHA1: 8834DE2312DF9B361ED5B36D8B8E8E7B0F106436, SHA256: 0B1D5FF387F71EF047F6279C88589C1A736F5C4FC1730D8391B23548C1C29285, ED2K: 5CBD17E4E5362489BC34CA10BB28F823
Screenshots
screenshotscreenshotscreenshotscreenshotscreenshot
Additional Info
General
Complete name                            : [Pn8] Tokyo Ghoul S01E05 Scars [Funi-DL] [720p] [0DCFB9F0].mp4
Format                                   : MPEG-4
Format profile                           : Base Media / Version 2
Codec ID                                 : mp42
File size                                : 628 MiB
Duration                                 : 24mn 11s
Overall bit rate mode                    : Variable
Overall bit rate                         : 3 631 Kbps
Collection                               : Tokyo Ghoul
Season                                   : 1
Album                                    : Tokyo Ghoul, Season 1
Album/Performer                          : Tokyo Ghoul
Part                                     : 5
Part/Position                            : 1
Part/Total                               : 1
Track name                               : Scars
Track name/Position                      : 5
Performer                                : Tokyo Ghoul
Genre                                    : Anime, Dubbed
ContentType                              : TV Show
Description                              : When Touka falls ill, Kaneki pays her a visit that has unexpected consequences. Meanwhile, as Nishiki is still recovering from his run-in with Kaneki, he is nearly preyed upon by other ghouls. Tsukiyama remains consumed with the idea of having Kaneki. / In modern day Tokyo, society lives in fear of Ghouls: mysterious creatures who look exactly like humans -- yet hunger insatiably for their flesh. None of this matters to Ken Kaneki, a bookish and ordinary young man, until a dark and violent encounter turns him into the first ever Ghoul-human half breed. Trapped between two worlds, Ken must survive the violent conflicts of warring Ghoul factions, while attempting to learn more about Ghoul society, his newfound powers, and the fine line between man and monster.
Recorded date                            : 2015-09-01
Encoded date                             : UTC 2015-08-31 21:54:10
Tagged date                              : UTC 2015-09-02 00:38:31
Writing application                      : none / Pikanet128
Cover                                    : Yes
Comment                                  : Source=Funicom-DL;
PodcastURL                               : Funicom-DL
LongDescription                          : When Touka falls ill, Kaneki pays her a visit that has unexpected consequences. Meanwhile, as Nishiki is still recovering from his run-in with Kaneki, he is nearly preyed upon by other ghouls. Tsukiyama remains consumed with the idea of having Kaneki.
Part_ID                                  : S01E05
AppleStoreCatalogID                      : 59566
HDVideo                                  : Yes
AppleStoreAccount                        : Pikanet128
ContentRating                            : us-tv|TV-MA|600|

Video
ID                                       : 1
Format                                   : AVC
Format/Info                              : Advanced Video Codec
Format profile                           : High@L3.1
Format settings, CABAC                   : Yes
Format settings, ReFrames                : 2 frames
Codec ID                                 : avc1
Codec ID/Info                            : Advanced Video Coding
Duration                                 : 24mn 11s
Bit rate mode                            : Constant
Bit rate                                 : 3 500 Kbps
Width                                    : 1 280 pixels
Height                                   : 720 pixels
Display aspect ratio                     : 16:9
Frame rate mode                          : Constant
Frame rate                               : 23.976 fps
Color space                              : YUV
Chroma subsampling                       : 4:2:0
Bit depth                                : 8 bits
Scan type                                : Progressive
Bits/(Pixel*Frame)                       : 0.158
Stream size                              : 605 MiB (96%)
Language                                 : English
Encoded date                             : UTC 2015-08-31 21:54:10
Tagged date                              : UTC 2015-08-31 21:54:10
Color primaries                          : BT.709
Transfer characteristics                 : BT.709
Matrix coefficients                      : BT.709
Color range                              : Limited

Audio
ID                                       : 2
Format                                   : AAC
Format/Info                              : Advanced Audio Codec
Format profile                           : LC
Codec ID                                 : 40
Duration                                 : 24mn 11s
Bit rate mode                            : Variable
Bit rate                                 : 126 Kbps
Maximum bit rate                         : 322 Kbps
Channel(s)                               : 2 channels
Channel positions                        : Front: L R
Sampling rate                            : 44.1 KHz
Compression mode                         : Lossy
Stream size                              : 21.7 MiB (3%)
Language                                 : English
Encoded date                             : UTC 2015-08-31 21:54:10
Tagged date                              : UTC 2015-08-31 21:54:10
mdhd_Duration                            : 1451247

Other Files in this Torrent
[Pn8] Tokyo Ghoul S01E05 Scars [Funi-DL] [720p] [0DCFB9F0].mp4
beta
Anime DDL+NZB mirror
Current Time: 26/01/2022 07:50



About/FAQs

Discord