[Pn8] Tokyo Ghoul S01E02 Incubation [Funi-DL] [720p] [1976A690].mp4


File Size626.6 MB (657,019,443 bytes)
DownloadGo4Up | Jheberg | MultiUp
Sendspace: Part1, Part2, Part3
SolidFiles: Part1, Part2
HashesCRC32: 1976A690, MD5: 9D252B56985DEFCFE02D80A89EB2FC4E, SHA1: 0A9B9C8C5CD8C6328FF80249D28A765679BA34A9, SHA256: 6029212525A18BE848347208E4C593748A795BD6E13AF63A287113FEC23DF00C, ED2K: 9658115AC10FEC3415C81ED34B43DAF7
Screenshots
screenshotscreenshotscreenshotscreenshotscreenshot
Additional Info
General
Complete name                            : [Pn8] Tokyo Ghoul S01E02 Incubation [Funi-DL] [720p] [1976A690].mp4
Format                                   : MPEG-4
Format profile                           : Base Media / Version 2
Codec ID                                 : mp42
File size                                : 627 MiB
Duration                                 : 24mn 6s
Overall bit rate mode                    : Variable
Overall bit rate                         : 3 635 Kbps
Collection                               : Tokyo Ghoul
Season                                   : 1
Album                                    : Tokyo Ghoul, Season 1
Album/Performer                          : Tokyo Ghoul
Part                                     : 2
Part/Position                            : 1
Part/Total                               : 1
Track name                               : Incubation
Track name/Position                      : 2
Performer                                : Tokyo Ghoul
Genre                                    : Anime, Dubbed
ContentType                              : TV Show
Description                              : Kaneki desperately fights the urge to eat human flesh, the only thing that can satisfy his hunger as a ghoul. He meets up with Hide again, joining him on an errand, and is glad for the companionship. But will his declining condition place Hide at risk? / In modern day Tokyo, society lives in fear of Ghouls: mysterious creatures who look exactly like humans -- yet hunger insatiably for their flesh. None of this matters to Ken Kaneki, a bookish and ordinary young man, until a dark and violent encounter turns him into the first ever Ghoul-human half breed. Trapped between two worlds, Ken must survive the violent conflicts of warring Ghoul factions, while attempting to learn more about Ghoul society, his newfound powers, and the fine line between man and monster.
Recorded date                            : 2015-08-18
Encoded date                             : UTC 2015-08-18 09:14:57
Tagged date                              : UTC 2015-08-18 20:51:29
Writing application                      : none / Pikanet128
Cover                                    : Yes
Comment                                  : Source=Funicom-DL;
PodcastURL                               : Funicom-DL
LongDescription                          : Kaneki desperately fights the urge to eat human flesh, the only thing that can satisfy his hunger as a ghoul. He meets up with Hide again, joining him on an errand, and is glad for the companionship. But will his declining condition place Hide at risk?
Part_ID                                  : S01E02
AppleStoreCatalogID                      : 59477
HDVideo                                  : Yes
AppleStoreAccount                        : Pikanet128
ContentRating                            : us-tv|TV-MA|600|

Video
ID                                       : 1
Format                                   : AVC
Format/Info                              : Advanced Video Codec
Format profile                           : High@L3.1
Format settings, CABAC                   : Yes
Format settings, ReFrames                : 2 frames
Codec ID                                 : avc1
Codec ID/Info                            : Advanced Video Coding
Duration                                 : 24mn 6s
Bit rate mode                            : Constant
Bit rate                                 : 3 500 Kbps
Width                                    : 1 280 pixels
Height                                   : 720 pixels
Display aspect ratio                     : 16:9
Frame rate mode                          : Constant
Frame rate                               : 23.976 fps
Color space                              : YUV
Chroma subsampling                       : 4:2:0
Bit depth                                : 8 bits
Scan type                                : Progressive
Bits/(Pixel*Frame)                       : 0.158
Stream size                              : 604 MiB (96%)
Language                                 : English
Encoded date                             : UTC 2015-08-18 09:14:57
Tagged date                              : UTC 2015-08-18 09:14:57
Color primaries                          : BT.709
Transfer characteristics                 : BT.709
Matrix coefficients                      : BT.709
Color range                              : Limited

Audio
ID                                       : 2
Format                                   : AAC
Format/Info                              : Advanced Audio Codec
Format profile                           : LC
Codec ID                                 : 40
Duration                                 : 24mn 6s
Bit rate mode                            : Variable
Bit rate                                 : 126 Kbps
Maximum bit rate                         : 427 Kbps
Channel(s)                               : 2 channels
Channel positions                        : Front: L R
Sampling rate                            : 44.1 KHz
Compression mode                         : Lossy
Stream size                              : 21.7 MiB (3%)
Language                                 : English
Encoded date                             : UTC 2015-08-18 09:14:57
Tagged date                              : UTC 2015-08-18 09:14:57
mdhd_Duration                            : 1446162

Other Files in this Torrent
[Pn8] Tokyo Ghoul S01E02 Incubation [Funi-DL] [720p] [1976A690].mp4
beta
Anime DDL+NZB mirror
Current Time: 27/11/2021 17:59



About/FAQs

Discord