[Pn8] Tokyo Ghoul S01E10 Aogiri [Funi-DL] [720p] [A2AF0402].mp4


File Size628.1 MB (658,586,599 bytes)
DownloadGo4Up | Jheberg | MultiUp
Sendspace: Part1, Part2, Part3
SolidFiles: Part1, Part2
HashesCRC32: A2AF0402, MD5: 9AC9BB009CC264699146C3EB89B8B160, SHA1: A12B52F0DF4DE3FEB2475AB11567650CE25E642E, SHA256: 1D449A2ADB021B0608A3A0DDB25EB1AA43A9D5E519AEF54C0F9A5BADDE02B6EF, ED2K: D3FE816B022B28CC117B976F462617DC
Screenshots
screenshotscreenshotscreenshotscreenshotscreenshot
Additional Info
General
Complete name                            : [Pn8] Tokyo Ghoul S01E10 Aogiri [Funi-DL] [720p] [A2AF0402].mp4
Format                                   : MPEG-4
Format profile                           : Base Media / Version 2
Codec ID                                 : mp42
File size                                : 628 MiB
Duration                                 : 24mn 11s
Overall bit rate mode                    : Variable
Overall bit rate                         : 3 631 Kbps
Collection                               : Tokyo Ghoul
Season                                   : 1
Album                                    : Tokyo Ghoul, Season 1
Album/Performer                          : Tokyo Ghoul
Part                                     : 10
Part/Position                            : 1
Part/Total                               : 1
Track name                               : Aogiri
Track name/Position                      : 10
Performer                                : Tokyo Ghoul
Genre                                    : Anime, Dubbed
ContentType                              : TV Show
Description                              : The 11th Ward offices of CCG are attacked by ghouls, wiping everyone out. Banjo and company stop in at Anteiku, looking for Rize to warn her to flee from Aogiri Tree, a new group of ghouls bent on taking over-- until Kaneki accidentally knocks him out! / In modern day Tokyo, society lives in fear of Ghouls: mysterious creatures who look exactly like humans -- yet hunger insatiably for their flesh. None of this matters to Ken Kaneki, a bookish and ordinary young man, until a dark and violent encounter turns him into the first ever Ghoul-human half breed. Trapped between two worlds, Ken must survive the violent conflicts of warring Ghoul factions, while attempting to learn more about Ghoul society, his newfound powers, and the fine line between man and monster.
Recorded date                            : 2015-09-01
Encoded date                             : UTC 2015-08-31 22:39:26
Tagged date                              : UTC 2015-09-02 00:38:31
Writing application                      : none / Pikanet128
Cover                                    : Yes
Comment                                  : Source=Funicom-DL;
PodcastURL                               : Funicom-DL
LongDescription                          : The 11th Ward offices of CCG are attacked by ghouls, wiping everyone out. Banjo and company stop in at Anteiku, looking for Rize to warn her to flee from Aogiri Tree, a new group of ghouls bent on taking over-- until Kaneki accidentally knocks him out!
Part_ID                                  : S01E10
AppleStoreCatalogID                      : 59571
HDVideo                                  : Yes
AppleStoreAccount                        : Pikanet128
ContentRating                            : us-tv|TV-MA|600|

Video
ID                                       : 1
Format                                   : AVC
Format/Info                              : Advanced Video Codec
Format profile                           : High@L3.1
Format settings, CABAC                   : Yes
Format settings, ReFrames                : 2 frames
Codec ID                                 : avc1
Codec ID/Info                            : Advanced Video Coding
Duration                                 : 24mn 11s
Source duration                          : 24mn 11s
Bit rate mode                            : Constant
Bit rate                                 : 3 500 Kbps
Width                                    : 1 280 pixels
Height                                   : 720 pixels
Display aspect ratio                     : 16:9
Frame rate mode                          : Constant
Frame rate                               : 23.976 fps
Color space                              : YUV
Chroma subsampling                       : 4:2:0
Bit depth                                : 8 bits
Scan type                                : Progressive
Bits/(Pixel*Frame)                       : 0.158
Stream size                              : 605 MiB (96%)
Source stream size                       : 605 MiB (96%)
Language                                 : English
Encoded date                             : UTC 2015-08-31 22:39:26
Tagged date                              : UTC 2015-08-31 22:39:26
Color primaries                          : BT.709
Transfer characteristics                 : BT.709
Matrix coefficients                      : BT.709
Color range                              : Limited

Audio
ID                                       : 2
Format                                   : AAC
Format/Info                              : Advanced Audio Codec
Format profile                           : LC
Codec ID                                 : 40
Duration                                 : 24mn 11s
Bit rate mode                            : Variable
Bit rate                                 : 126 Kbps
Maximum bit rate                         : 529 Kbps
Channel(s)                               : 2 channels
Channel positions                        : Front: L R
Sampling rate                            : 44.1 KHz
Compression mode                         : Lossy
Stream size                              : 21.7 MiB (3%)
Language                                 : English
Encoded date                             : UTC 2015-08-31 22:39:26
Tagged date                              : UTC 2015-08-31 22:39:26
mdhd_Duration                            : 1451201

Other Files in this Torrent
[Pn8] Tokyo Ghoul S01E10 Aogiri [Funi-DL] [720p] [A2AF0402].mp4
beta
Anime DDL+NZB mirror
Current Time: 27/11/2021 17:16



About/FAQs

Discord