[kino] Kino no Tabi - The Beautiful World - Movie 2 - Byouki no Kuni -For You- [DVDRip 1280x720 x264 AC3].mkv


File Size498.4 MB (522,646,308 bytes)
DownloadClickNUpload | DailyUploads | DownloadGG | GoFile | KrakenFiles | MdiaLoad | MultiUp
  • BdUpload
  • DownAce
  • Fichier
  • FileCloud
  • Filerio
  • FilesCdn
  • IndiShare
  • Kbagi
  • Turbobit
  • UpToBox
  • Uppit
| Uppit
HashesCRC32: 7822E9A9, MD5: 33688C366E8FED4F3AF1B34E7B5B6516, SHA1: 21B7CEFCB02B2791C5C76DAC55353C64AA29A644, SHA256: 02FFD26C204E07C6D3A5DCACA307C377DA49B8CFB1788505359A67030CAF52DE, ED2K: 0CEBCED03B54E338B53FBC5CE30F42C5
Screenshots
screenshotscreenshotscreenshotscreenshotscreenshot
SubtitlesAll Attachments | Full Subtitles [niizk] [eng, ASS]
Additional Info
General
Unique ID                                : 305010715885985077858319833561326143120 (0xE576ED56F98EA03DCCF640242E5FC690)
Complete name                            : [kino] Kino no Tabi - The Beautiful World - Movie 2 - Byouki no Kuni -For You- [DVDRip 1280x720 x264 AC3].mkv
Format                                   : Matroska
Format version                           : Version 4
File size                                : 498 MiB
Duration                                 : 28 min 57 s
Overall bit rate                         : 2 407 kb/s
Frame rate                               : 23.976 FPS
Encoded date                             : 2024-01-28 20:48:01 UTC
Writing application                      : mkvmerge v80.0 ('Roundabout') 64-bit
Writing library                          : libebml v1.4.4 + libmatroska v1.7.1
Attachments                              : TIMESBI.TTF / TIMESI.TTF / Virtue.ttf / LTe52140.ttf / TIMES.TTF / TIMESBD.TTF

Video
ID                                       : 1
Format                                   : AVC
Format/Info                              : Advanced Video Codec
Format profile                           : High 10@L4
Format settings                          : CABAC / 9 Ref Frames
Format settings, CABAC                   : Yes
Format settings, Reference frames        : 9 frames
Codec ID                                 : V_MPEG4/ISO/AVC
Duration                                 : 28 min 57 s
Bit rate                                 : 1 951 kb/s
Width                                    : 1 280 pixels
Height                                   : 720 pixels
Display aspect ratio                     : 16:9
Frame rate mode                          : Constant
Frame rate                               : 23.976 (24000/1001) FPS
Color space                              : YUV
Chroma subsampling                       : 4:2:0
Bit depth                                : 10 bits
Scan type                                : Progressive
Bits/(Pixel*Frame)                       : 0.088
Stream size                              : 404 MiB (81%)
Title                                    : DVDRip [Yurasyk]
Writing library                          : x264 core 148 r2638kMod 7599210
Encoding settings                        : cabac=1 / ref=9 / deblock=1:0:0 / analyse=0x3:0x113 / me=umh / subme=11 / psy=1 / fade_compensate=0.00 / psy_rd=0.90:0.00 / mixed_ref=1 / me_range=32 / chroma_me=1 / trellis=2 / 8x8dct=1 / cqm=0 / deadzone=21,11 / fast_pskip=0 / chroma_qp_offset=-2 / threads=12 / lookahead_threads=3 / sliced_threads=0 / nr=0 / decimate=1 / interlaced=0 / bluray_compat=0 / constrained_intra=0 / fgo=0 / bframes=16 / b_pyramid=2 / b_adapt=2 / b_bias=0 / direct=3 / weightb=1 / open_gop=0 / weightp=2 / keyint=240 / keyint_min=24 / scenecut=40 / intra_refresh=0 / rc_lookahead=60 / rc=crf / mbtree=0 / crf=16.0000 / qcomp=0.70 / qpmin=0 / qpmax=81 / qpstep=4 / vbv_maxrate=50000 / vbv_bufsize=62500 / crf_max=0.0 / nal_hrd=none / filler=0 / ip_ratio=1.40 / pb_ratio=1.30 / aq=3:0.70
Language                                 : Japanese
Default                                  : Yes
Forced                                   : No
Color range                              : Limited
Color primaries                          : BT.709
Transfer characteristics                 : BT.709
Matrix coefficients                      : BT.709

Audio
ID                                       : 2
Format                                   : AC-3
Format/Info                              : Audio Coding 3
Commercial name                          : Dolby Digital
Codec ID                                 : A_AC3
Duration                                 : 28 min 56 s
Bit rate mode                            : Constant
Bit rate                                 : 448 kb/s
Channel(s)                               : 2 channels
Channel layout                           : L R
Sampling rate                            : 48.0 kHz
Frame rate                               : 31.250 FPS (1536 SPF)
Compression mode                         : Lossy
Stream size                              : 92.7 MiB (19%)
Title                                    : AC3 2.0
Language                                 : Japanese
Service kind                             : Complete Main
Default                                  : Yes
Forced                                   : No

Text
ID                                       : 3
Format                                   : ASS
Codec ID                                 : S_TEXT/ASS
Codec ID/Info                            : Advanced Sub Station Alpha
Duration                                 : 27 min 27 s
Bit rate                                 : 93 b/s
Frame rate                               : 0.189 FPS
Count of elements                        : 311
Compression mode                         : Lossless
Stream size                              : 18.7 KiB (0%)
Title                                    : Full Subtitles [niizk]
Language                                 : English
Default                                  : Yes
Forced                                   : No

Menu
00:00:00.000                             : ja:Chapter 01
00:03:19.032                             : ja:Chapter 02
00:09:00.957                             : ja:Chapter 03
00:16:53.012                             : ja:Chapter 04
00:24:36.767                             : ja:Chapter 05
00:26:25.834                             : ja:Chapter 06

Other Files in this Torrent
[kino] Kino no Tabi - The Beautiful World - Movie 2 - Byouki no Kuni -For You- [DVDRip 1280x720 x264 AC3].mkv
beta
Anime DDL+NZB mirror
Current Time: 20/06/2024 09:49



About/FAQs

Discord