[kino] Kino no Tabi - The Beautiful World - 05 [DVDRip 1264x720 x264 FLAC].mkv


File Size826.1 MB (866,232,880 bytes)
DownloadClickNUpload | DailyUploads | DownloadGG | GoFile | KrakenFiles | MdiaLoad | Uppit
MultiUp: Part1
  • BdUpload
  • DownAce
  • Fichier
  • FileCloud
  • Filerio
  • FilesCdn
  • IndiShare
  • Kbagi
  • Turbobit
  • UpToBox
  • Uppit
, Part2
  • BdUpload
  • DownAce
  • Fichier
  • FileCloud
  • Filerio
  • FilesCdn
  • IndiShare
  • Kbagi
  • Turbobit
  • UpToBox
  • Uppit
HashesCRC32: 6C89D7CF, MD5: AD08782702A1BB2135409AE9416E4841, SHA1: 2AB22B443D78B69716ED1C1B7E48B248EBE6545E, SHA256: 15847F836528E2295118A03C2BC4260F402325169ECDFA2C546B5BA45A013747, ED2K: C66773ACD8CCB91CFB7582E98A682AB8
Screenshots
screenshotscreenshotscreenshotscreenshotscreenshot
SubtitlesAll Attachments | Full Subtitles [niizk] [eng, ASS]
Additional Info
General
Unique ID                                : 174994072007810005543837933792883083500 (0x83A6A1E0D698E9F6F04949657E5388EC)
Complete name                            : [kino] Kino no Tabi - The Beautiful World - 05 [DVDRip 1264x720 x264 FLAC].mkv
Format                                   : Matroska
Format version                           : Version 4
File size                                : 826 MiB
Duration                                 : 24 min 20 s
Overall bit rate mode                    : Variable
Overall bit rate                         : 4 744 kb/s
Frame rate                               : 23.976 FPS
Encoded date                             : 2024-01-28 19:43:49 UTC
Writing application                      : mkvmerge v80.0 ('Roundabout') 64-bit
Writing library                          : libebml v1.4.4 + libmatroska v1.7.1
Attachments                              : TIMESBI.TTF / TIMESI.TTF / Virtue.ttf / LTe52140.ttf / TIMES.TTF / TIMESBD.TTF

Video
ID                                       : 1
Format                                   : AVC
Format/Info                              : Advanced Video Codec
Format profile                           : High 10@L4
Format settings                          : CABAC / 9 Ref Frames
Format settings, CABAC                   : Yes
Format settings, Reference frames        : 9 frames
Codec ID                                 : V_MPEG4/ISO/AVC
Duration                                 : 24 min 20 s
Bit rate                                 : 4 080 kb/s
Width                                    : 1 264 pixels
Height                                   : 720 pixels
Display aspect ratio                     : 16:9
Frame rate mode                          : Constant
Frame rate                               : 23.976 (24000/1001) FPS
Color space                              : YUV
Chroma subsampling                       : 4:2:0
Bit depth                                : 10 bits
Scan type                                : Progressive
Bits/(Pixel*Frame)                       : 0.187
Stream size                              : 710 MiB (86%)
Title                                    : DVDRip [Yurasyk]
Writing library                          : x264 core 148 r2638kMod 7599210
Encoding settings                        : cabac=1 / ref=9 / deblock=1:0:0 / analyse=0x3:0x113 / me=umh / subme=11 / psy=1 / fade_compensate=0.00 / psy_rd=1.00:0.20 / mixed_ref=1 / me_range=32 / chroma_me=1 / trellis=2 / 8x8dct=1 / cqm=0 / deadzone=21,11 / fast_pskip=0 / chroma_qp_offset=-3 / threads=12 / lookahead_threads=3 / sliced_threads=0 / nr=0 / decimate=1 / interlaced=0 / bluray_compat=0 / constrained_intra=0 / fgo=0 / bframes=16 / b_pyramid=2 / b_adapt=2 / b_bias=0 / direct=3 / weightb=1 / open_gop=0 / weightp=2 / keyint=240 / keyint_min=24 / scenecut=40 / intra_refresh=0 / rc_lookahead=60 / rc=crf / mbtree=0 / crf=16.0000 / qcomp=0.70 / qpmin=0 / qpmax=81 / qpstep=4 / vbv_maxrate=50000 / vbv_bufsize=62500 / crf_max=0.0 / nal_hrd=none / filler=0 / ip_ratio=1.40 / pb_ratio=1.30 / aq=3:1.00
Language                                 : Japanese
Default                                  : Yes
Forced                                   : No
Color range                              : Limited
Color primaries                          : BT.709
Transfer characteristics                 : BT.709
Matrix coefficients                      : BT.709

Audio
ID                                       : 2
Format                                   : FLAC
Format/Info                              : Free Lossless Audio Codec
Codec ID                                 : A_FLAC
Duration                                 : 24 min 20 s
Bit rate mode                            : Variable
Bit rate                                 : 655 kb/s
Channel(s)                               : 2 channels
Channel layout                           : L R
Sampling rate                            : 48.0 kHz
Frame rate                               : 11.719 FPS (4096 SPF)
Bit depth                                : 16 bits
Compression mode                         : Lossless
Stream size                              : 114 MiB (14%)
Title                                    : FLAC 2.0
Writing library                          : libFLAC 1.2.1 (2007-09-17)
Language                                 : Japanese
Default                                  : Yes
Forced                                   : No
MD5 of the unencoded content             : E95113D8B9964E1EFA98C5D32824E53B

Text
ID                                       : 3
Format                                   : ASS
Codec ID                                 : S_TEXT/ASS
Codec ID/Info                            : Advanced Sub Station Alpha
Duration                                 : 24 min 12 s
Bit rate                                 : 160 b/s
Frame rate                               : 0.295 FPS
Count of elements                        : 428
Compression mode                         : Lossless
Stream size                              : 28.5 KiB (0%)
Title                                    : Full Subtitles [niizk]
Language                                 : English
Default                                  : Yes
Forced                                   : No

Menu
00:00:00.000                             : ja:Opening
00:01:30.048                             : ja:A-part
00:11:08.042                             : ja:Eyecatch
00:11:13.047                             : ja:B-part
00:22:30.057                             : ja:Ending
00:23:50.095                             : ja:Preview

Other Files in this Torrent
[kino] Kino no Tabi - The Beautiful World - 05 [DVDRip 1264x720 x264 FLAC].mkv
beta
Anime DDL+NZB mirror
Current Time: 20/06/2024 09:45



About/FAQs

Discord