[kino] Kino no Tabi - The Beautiful World - 06 [DVDRip 1264x720 x264 FLAC].mkv


File Size973.3 MB (1,020,595,991 bytes)
DownloadClickNUpload | DailyUploads | DownloadGG | GoFile | KrakenFiles | MdiaLoad | Uppit
MultiUp: Part1
  • BdUpload
  • DownAce
  • Fichier
  • FileCloud
  • Filerio
  • FilesCdn
  • IndiShare
  • Kbagi
  • Turbobit
  • UpToBox
  • Uppit
, Part2
  • BdUpload
  • DownAce
  • Fichier
  • FileCloud
  • Filerio
  • FilesCdn
  • IndiShare
  • Kbagi
  • Turbobit
  • UpToBox
  • Uppit
HashesCRC32: E734746A, MD5: 2DC6C6C83B60C625B67F6F422490D42C, SHA1: ECAA20AFB229B4DCADE6590222A3B52A7111C6C4, SHA256: A23CFD8F9C70F1943024A60EB20EB48359DF749388626272E5FE896E6A9BF2E1, ED2K: AFCE934A39CE0EFD2A87E8F0C1E75037
Screenshots
screenshotscreenshotscreenshotscreenshotscreenshot
SubtitlesAll Attachments | Full Subtitles [niizk] [eng, ASS]
Additional Info
General
Unique ID                                : 112619107995314022789566219273869660390 (0x54B9A6B7A7636E10CF499569F6EF10E6)
Complete name                            : [kino] Kino no Tabi - The Beautiful World - 06 [DVDRip 1264x720 x264 FLAC].mkv
Format                                   : Matroska
Format version                           : Version 4
File size                                : 973 MiB
Duration                                 : 24 min 20 s
Overall bit rate mode                    : Variable
Overall bit rate                         : 5 589 kb/s
Frame rate                               : 23.976 FPS
Encoded date                             : 2024-01-28 19:44:05 UTC
Writing application                      : mkvmerge v80.0 ('Roundabout') 64-bit
Writing library                          : libebml v1.4.4 + libmatroska v1.7.1
Attachments                              : TIMESBD.TTF / TIMESBI.TTF / TIMESI.TTF / Virtue.ttf / LTe52140.ttf / TIMES.TTF

Video
ID                                       : 1
Format                                   : AVC
Format/Info                              : Advanced Video Codec
Format profile                           : High 10@L4
Format settings                          : CABAC / 9 Ref Frames
Format settings, CABAC                   : Yes
Format settings, Reference frames        : 9 frames
Codec ID                                 : V_MPEG4/ISO/AVC
Duration                                 : 24 min 20 s
Bit rate                                 : 4 915 kb/s
Width                                    : 1 264 pixels
Height                                   : 720 pixels
Display aspect ratio                     : 16:9
Frame rate mode                          : Constant
Frame rate                               : 23.976 (24000/1001) FPS
Color space                              : YUV
Chroma subsampling                       : 4:2:0
Bit depth                                : 10 bits
Scan type                                : Progressive
Bits/(Pixel*Frame)                       : 0.225
Stream size                              : 856 MiB (88%)
Title                                    : DVDRip [Yurasyk]
Writing library                          : x264 core 148 r2638kMod 7599210
Encoding settings                        : cabac=1 / ref=9 / deblock=1:0:0 / analyse=0x3:0x113 / me=umh / subme=11 / psy=1 / fade_compensate=0.00 / psy_rd=1.00:0.20 / mixed_ref=1 / me_range=32 / chroma_me=1 / trellis=2 / 8x8dct=1 / cqm=0 / deadzone=21,11 / fast_pskip=0 / chroma_qp_offset=-3 / threads=12 / lookahead_threads=3 / sliced_threads=0 / nr=0 / decimate=1 / interlaced=0 / bluray_compat=0 / constrained_intra=0 / fgo=0 / bframes=16 / b_pyramid=2 / b_adapt=2 / b_bias=0 / direct=3 / weightb=1 / open_gop=0 / weightp=2 / keyint=240 / keyint_min=24 / scenecut=40 / intra_refresh=0 / rc_lookahead=60 / rc=crf / mbtree=0 / crf=16.0000 / qcomp=0.70 / qpmin=0 / qpmax=81 / qpstep=4 / vbv_maxrate=50000 / vbv_bufsize=62500 / crf_max=0.0 / nal_hrd=none / filler=0 / ip_ratio=1.40 / pb_ratio=1.30 / aq=3:1.00
Language                                 : Japanese
Default                                  : Yes
Forced                                   : No
Color range                              : Limited
Color primaries                          : BT.709
Transfer characteristics                 : BT.709
Matrix coefficients                      : BT.709

Audio
ID                                       : 2
Format                                   : FLAC
Format/Info                              : Free Lossless Audio Codec
Codec ID                                 : A_FLAC
Duration                                 : 24 min 20 s
Bit rate mode                            : Variable
Bit rate                                 : 665 kb/s
Channel(s)                               : 2 channels
Channel layout                           : L R
Sampling rate                            : 48.0 kHz
Frame rate                               : 11.719 FPS (4096 SPF)
Bit depth                                : 16 bits
Compression mode                         : Lossless
Stream size                              : 116 MiB (12%)
Title                                    : FLAC 2.0
Writing library                          : libFLAC 1.2.1 (2007-09-17)
Language                                 : Japanese
Default                                  : Yes
Forced                                   : No
MD5 of the unencoded content             : 7E2167770ED2AFF5AE2C049ECA96A144

Text
ID                                       : 3
Format                                   : ASS
Codec ID                                 : S_TEXT/ASS
Codec ID/Info                            : Advanced Sub Station Alpha
Duration                                 : 24 min 11 s
Bit rate                                 : 123 b/s
Frame rate                               : 0.234 FPS
Count of elements                        : 340
Compression mode                         : Lossless
Stream size                              : 21.8 KiB (0%)
Title                                    : Full Subtitles [niizk]
Language                                 : English
Default                                  : Yes
Forced                                   : No

Menu
00:00:00.000                             : ja:Opening
00:01:30.007                             : ja:A-part
00:13:18.047                             : ja:Eyecatch
00:13:23.052                             : ja:B-part
00:22:30.057                             : ja:Ending
00:23:50.095                             : ja:Preview

Other Files in this Torrent
[kino] Kino no Tabi - The Beautiful World - 06 [DVDRip 1264x720 x264 FLAC].mkv
beta
Anime DDL+NZB mirror
Current Time: 20/07/2024 03:24



About/FAQs

Discord