(Hi10)_One-Punch_Man_Special_-_05_(BD_1080p)_(Beatrice-Hi10-Sally)_(ECD22261).mkv


File Size113.7 MB (119,226,880 bytes)
DownloadClickNUpload | Go4Up | Jheberg | MultiUp
  • BdUpload
  • DownAce
  • Fichier
  • FileCloud
  • Filerio
  • FilesCdn
  • IndiShare
  • Kbagi
  • Turbobit
  • UpToBox
  • Uppit
  • ZippyShare
| OpenLoad | Sendspace | SolidFiles | ZippyShare
HashesCRC32: ECD22261, MD5: 63CCACE01CEDA069753AEBF87F3A161E, SHA1: FCDEDCF7537AE01DDE39C29AD53224612040AC51, SHA256: 43983B8E49D91D88E1658010CEF20A15F96750B815BC1655F40A1ACD3A291D18, ED2K: 45EC542318C9179D4C2D6BF2719933C6
Screenshots
screenshotscreenshotscreenshotscreenshotscreenshot
SubtitlesAll Attachments | Edited by *kBaraka* [eng, ASS], SallySubs [eng, ASS]
Additional Info
General
Unique ID                                : 172546763186411589287849638566829002982 (0x81CF4C3CCD9224CD9FF07A730D8C90E6)
Complete name                            : (Hi10)_One-Punch_Man_Special_-_05_(BD_1080p)_(Beatrice-Hi10-Sally)_(ECD22261).mkv
Format                                   : Matroska
Format version                           : Version 4 / Version 2
File size                                : 114 MiB
Duration                                 : 11 min 54 s
Overall bit rate                         : 1 335 kb/s
Movie name                               : One-Punch Man Special - 05: The Sisters With Too Much Going On
Encoded date                             : UTC 2016-12-27 20:19:43
Writing application                      : mkvmerge v7.8.0 ('River Man') 32bit built on Mar 27 2015 16:18:02
Writing library                          : libebml v1.3.1 + libmatroska v1.4.2
Attachments                              : bellgothicstd-black.otf / Brush Strokes.ttf / DISTInkingFxd-Bold.otf / PTS75F.ttf / PTS76F.ttf / ROSARIO-BOLD.OTF / ROSARIO-BOLDITALIC.OTF / SubClearSans-Bold.ttf

Video
ID                                       : 1
Format                                   : AVC
Format/Info                              : Advanced Video Codec
Format profile                           : High 10@L5.1
Format settings, CABAC                   : Yes
Format settings, ReFrames                : 16 frames
Codec ID                                 : V_MPEG4/ISO/AVC
Duration                                 : 11 min 54 s
Bit rate                                 : 1 195 kb/s
Width                                    : 1 920 pixels
Height                                   : 1 080 pixels
Display aspect ratio                     : 16:9
Frame rate mode                          : Constant
Frame rate                               : 23.976 (24000/1001) FPS
Color space                              : YUV
Chroma subsampling                       : 4:2:0
Bit depth                                : 10 bits
Scan type                                : Progressive
Bits/(Pixel*Frame)                       : 0.024
Stream size                              : 102 MiB (90%)
Writing library                          : x264 core 148 r2705+54 9f484c1 t_mod_Custom [10-bit@all X86_64]
Encoding settings                        : cabac=1 / ref=16 / deblock=1:1:1 / analyse=0x3:0x133 / me=umh / subme=10 / psy=1 / fade_compensate=0.00 / psy_rd=0.50:0.15 / mixed_ref=1 / me_range=24 / chroma_me=1 / trellis=2 / 8x8dct=1 / cqm=0 / deadzone=21,11 / fast_pskip=1 / chroma_qp_offset=-3 / threads=12 / lookahead_threads=3 / sliced_threads=0 / nr=0 / decimate=1 / interlaced=0 / bluray_compat=0 / constrained_intra=0 / fgo=0 / bframes=10 / b_pyramid=2 / b_adapt=2 / b_bias=0 / direct=3 / weightb=1 / open_gop=0 / weightp=2 / keyint=250 / keyint_min=23 / scenecut=45 / intra_refresh=0 / rc_lookahead=60 / rc=crf / mbtree=1 / crf=24.0000 / qcomp=0.70 / qpmin=10:10:10 / qpmax=51:51:51 / qpstep=4 / ip_ratio=1.40 / aq=3:1.00 / aq-sensitivity=10.00 / aq-factor=1.00:1.00:1.00 / aq2=0 / aq3=0
Language                                 : English
Default                                  : Yes
Forced                                   : No

Audio
ID                                       : 2
Format                                   : AAC
Format/Info                              : Advanced Audio Codec
Format profile                           : LC
Codec ID                                 : A_AAC
Duration                                 : 11 min 54 s
Bit rate                                 : 115 kb/s
Channel(s)                               : 2 channels
Channel positions                        : Front: L R
Sampling rate                            : 48.0 kHz
Frame rate                               : 46.875 FPS (1024 spf)
Compression mode                         : Lossy
Stream size                              : 9.84 MiB (9%)
Language                                 : Japanese
Default                                  : Yes
Forced                                   : No

Text #1
ID                                       : 3
Format                                   : ASS
Codec ID                                 : S_TEXT/ASS
Codec ID/Info                            : Advanced Sub Station Alpha
Duration                                 : 10 min 9 s
Bit rate                                 : 418 b/s
Count of elements                        : 334
Compression mode                         : Lossless
Stream size                              : 31.1 KiB (0%)
Title                                    : Edited by *kBaraka*
Language                                 : English
Default                                  : Yes
Forced                                   : No

Text #2
ID                                       : 4
Format                                   : ASS
Codec ID                                 : S_TEXT/ASS
Codec ID/Info                            : Advanced Sub Station Alpha
Duration                                 : 10 min 9 s
Bit rate                                 : 4 560 b/s
Count of elements                        : 2444
Compression mode                         : Lossless
Stream size                              : 339 KiB (0%)
Title                                    : SallySubs
Language                                 : English
Default                                  : No
Forced                                   : No

Menu
00:00:00.000                             : en:Prologue
00:00:55.388                             : en:Main
00:10:16.032                             : en:Ending

Other Files in this Torrent
(Hi10)_One-Punch_Man_Special_-_05_(BD_1080p)_(Beatrice-Hi10-Sally)_(ECD22261).mkv
beta
Anime DDL+NZB mirror
Current Time: 27/11/2021 16:39



About/FAQs

Discord