(Hi10)_One-Punch_Man_-_NCOP_(BD_1080p)_(Beatrice-Cthuko)_(214B5609).mkv


File Size68.72 MB (72,057,721 bytes)
DownloadClickNUpload | Go4Up | Jheberg | MultiUp
  • BdUpload
  • DownAce
  • Fichier
  • FileCloud
  • Filerio
  • FilesCdn
  • IndiShare
  • Kbagi
  • Turbobit
  • UpToBox
  • Uppit
  • ZippyShare
| OpenLoad | Sendspace | SolidFiles | ZippyShare
HashesCRC32: 214B5609, MD5: 82B1121A4E8FC9098AE17BDB7312F271, SHA1: 7F3CB175A5F8A67A0E0058388AA9E25A25B20FC0, SHA256: 93C5EABB370EF90114AD807728AC88FE463CB7EF1085344ABCEE21DB8467226B, ED2K: 1055B7A9A00CE7D70E49CF1B876EB5D2
Screenshots
screenshotscreenshot
SubtitlesAll Attachments | Commie Edited by *kBaraka* [eng, ASS], Cthuko [eng, ASS], SallySubs [eng, ASS]
Additional Info
General
Unique ID                                : 213548914124694154133989740649743201968 (0xA0A8065B49326A07A3B70A01C0E936B0)
Complete name                            : (Hi10)_One-Punch_Man_-_NCOP_(BD_1080p)_(Beatrice-Cthuko)_(214B5609).mkv
Format                                   : Matroska
Format version                           : Version 4 / Version 2
File size                                : 68.7 MiB
Duration                                 : 1 min 30 s
Overall bit rate                         : 6 399 kb/s
Encoded date                             : UTC 2016-12-27 19:36:51
Writing application                      : mkvmerge v7.8.0 ('River Man') 32bit built on Mar 27 2015 16:18:02
Writing library                          : libebml v1.3.1 + libmatroska v1.4.2
Attachments                              : Franchise-Bold-hinted.ttf

Video
ID                                       : 1
Format                                   : AVC
Format/Info                              : Advanced Video Codec
Format profile                           : High 10@L5.1
Format settings, CABAC                   : Yes
Format settings, ReFrames                : 16 frames
Codec ID                                 : V_MPEG4/ISO/AVC
Duration                                 : 1 min 30 s
Bit rate                                 : 6 254 kb/s
Width                                    : 1 920 pixels
Height                                   : 1 080 pixels
Display aspect ratio                     : 16:9
Frame rate mode                          : Constant
Frame rate                               : 23.976 (24000/1001) FPS
Color space                              : YUV
Chroma subsampling                       : 4:2:0
Bit depth                                : 10 bits
Scan type                                : Progressive
Bits/(Pixel*Frame)                       : 0.126
Stream size                              : 67.2 MiB (98%)
Writing library                          : x264 core 148 r2705+54 9f484c1 t_mod_Custom [10-bit@all X86_64]
Encoding settings                        : cabac=1 / ref=16 / deblock=1:1:1 / analyse=0x3:0x133 / me=umh / subme=10 / psy=1 / fade_compensate=0.00 / psy_rd=0.60:0.15 / mixed_ref=1 / me_range=24 / chroma_me=1 / trellis=2 / 8x8dct=1 / cqm=0 / deadzone=21,11 / fast_pskip=1 / chroma_qp_offset=-3 / threads=34 / lookahead_threads=8 / sliced_threads=0 / nr=0 / decimate=1 / interlaced=0 / bluray_compat=0 / constrained_intra=0 / fgo=0 / bframes=10 / b_pyramid=2 / b_adapt=2 / b_bias=0 / direct=3 / weightb=1 / open_gop=0 / weightp=2 / keyint=250 / keyint_min=23 / scenecut=45 / intra_refresh=0 / rc_lookahead=60 / rc=crf / mbtree=1 / crf=18.0000 / qcomp=0.70 / qpmin=10:10:10 / qpmax=51:51:51 / qpstep=4 / ip_ratio=1.40 / aq=3:1.00 / aq-sensitivity=10.00 / aq-factor=1.00:1.00:1.00 / aq2=0 / aq3=0
Language                                 : English
Default                                  : Yes
Forced                                   : No

Audio
ID                                       : 2
Format                                   : AAC
Format/Info                              : Advanced Audio Codec
Format profile                           : LC
Codec ID                                 : A_AAC
Duration                                 : 1 min 30 s
Bit rate                                 : 132 kb/s
Channel(s)                               : 2 channels
Channel positions                        : Front: L R
Sampling rate                            : 48.0 kHz
Frame rate                               : 46.875 FPS (1024 spf)
Compression mode                         : Lossy
Stream size                              : 1.42 MiB (2%)
Language                                 : Japanese
Default                                  : Yes
Forced                                   : No

Text #1
ID                                       : 3
Format                                   : ASS
Codec ID                                 : S_TEXT/ASS
Codec ID/Info                            : Advanced Sub Station Alpha
Duration                                 : 1 min 18 s
Bit rate                                 : 1 965 b/s
Count of elements                        : 152
Compression mode                         : Lossless
Stream size                              : 18.8 KiB (0%)
Title                                    : Commie Edited by *kBaraka*
Language                                 : English
Default                                  : Yes
Forced                                   : No

Text #2
ID                                       : 4
Format                                   : ASS
Codec ID                                 : S_TEXT/ASS
Codec ID/Info                            : Advanced Sub Station Alpha
Duration                                 : 1 min 27 s
Bit rate                                 : 1 757 b/s
Count of elements                        : 153
Compression mode                         : Lossless
Stream size                              : 18.8 KiB (0%)
Title                                    : Cthuko
Language                                 : English
Default                                  : No
Forced                                   : No

Text #3
ID                                       : 5
Format                                   : ASS
Codec ID                                 : S_TEXT/ASS
Codec ID/Info                            : Advanced Sub Station Alpha
Duration                                 : 1 min 27 s
Bit rate                                 : 1 757 b/s
Count of elements                        : 153
Compression mode                         : Lossless
Stream size                              : 18.8 KiB (0%)
Title                                    : SallySubs
Language                                 : English
Default                                  : No
Forced                                   : No

Other Files in this Torrent
(Hi10)_One-Punch_Man_-_NCOP_(BD_1080p)_(Beatrice-Cthuko)_(214B5609).mkv
beta
Anime DDL+NZB mirror
Current Time: 27/11/2021 17:14



About/FAQs

Discord