(Hi10)_One-Punch_Man_-_03_(BD_1080p)_(Beatrice-Commie-Cthuko)_(651C52CF).mkv


File Size231.7 MB (242,921,809 bytes)
DownloadClickNUpload | Go4Up
  • DownAce
  • FileFactory
  • KatFile
  • Oboom
  • OwnDrives
  • Share-Online
  • TusFiles
  • UploadGig
  • Uppit
  • UsersCloud
| Jheberg | MultiUp
  • BdUpload
  • DownAce
  • Fichier
  • FileCloud
  • Filerio
  • FilesCdn
  • IndiShare
  • Kbagi
  • Turbobit
  • UpToBox
  • Uppit
| OpenLoad | Sendspace | SolidFiles | ZippyShare
HashesCRC32: 651C52CF, MD5: 4A6234553ED7E5BB9AC52EF7E9DE6993, SHA1: 74270611540B2C2D9C94B89614F3975F0EA41258, SHA256: 2D0B22BDB14A86BAA31C52CA87A4A526A81B7FD45D378D0EF0EEED194418A35D, ED2K: 81A898EB3BFE09D790B12C11B7BBF1BC
Screenshots
screenshotscreenshotscreenshotscreenshotscreenshot
SubtitlesAll Attachments | Commie Edited by *kBaraka* [eng, ASS], Cthuko [eng, ASS], SallySubs [eng, ASS]
Additional Info
General
Unique ID                                : 250249173860909093289269473707308671708 (0xBC443CDD29E3E7C9BF5BDCA1DD74E2DC)
Complete name                            : (Hi10)_One-Punch_Man_-_03_(BD_1080p)_(Beatrice-Commie-Cthuko)_(651C52CF).mkv
Format                                   : Matroska
Format version                           : Version 4 / Version 2
File size                                : 232 MiB
Duration                                 : 21 min 20 s
Overall bit rate                         : 1 518 kb/s
Movie name                               : One-Punch Man - 03: The Obsessive Scientist
Encoded date                             : UTC 2016-12-27 19:05:57
Writing application                      : mkvmerge v7.8.0 ('River Man') 32bit built on Mar 27 2015 16:18:02
Writing library                          : libebml v1.3.1 + libmatroska v1.4.2
Attachments                              : Brush Strokes.ttf / BrushStrokes-Bold.ttf / eartmbe.ttf / FastBrush.ttf / PTS75F.ttf / PTS76F.ttf / ROSARIO-BOLD.OTF / ROSARIO-BOLDITALIC.OTF / Ubuntu-B.ttf / Ubuntu-BI.ttf

Video
ID                                       : 1
Format                                   : AVC
Format/Info                              : Advanced Video Codec
Format profile                           : High 10@L5.1
Format settings, CABAC                   : Yes
Format settings, ReFrames                : 16 frames
Codec ID                                 : V_MPEG4/ISO/AVC
Duration                                 : 21 min 20 s
Bit rate                                 : 1 383 kb/s
Width                                    : 1 920 pixels
Height                                   : 1 080 pixels
Display aspect ratio                     : 16:9
Frame rate mode                          : Constant
Frame rate                               : 23.976 (24000/1001) FPS
Color space                              : YUV
Chroma subsampling                       : 4:2:0
Bit depth                                : 10 bits
Scan type                                : Progressive
Bits/(Pixel*Frame)                       : 0.028
Stream size                              : 211 MiB (91%)
Writing library                          : x264 core 148 r2705+54 9f484c1 t_mod_Custom [10-bit@all X86_64]
Encoding settings                        : cabac=1 / ref=16 / deblock=1:1:1 / analyse=0x3:0x133 / me=umh / subme=10 / psy=1 / fade_compensate=0.00 / psy_rd=0.60:0.15 / mixed_ref=1 / me_range=24 / chroma_me=1 / trellis=2 / 8x8dct=1 / cqm=0 / deadzone=21,11 / fast_pskip=1 / chroma_qp_offset=-3 / threads=34 / lookahead_threads=8 / sliced_threads=0 / nr=0 / decimate=1 / interlaced=0 / bluray_compat=0 / constrained_intra=0 / fgo=0 / bframes=10 / b_pyramid=2 / b_adapt=2 / b_bias=0 / direct=3 / weightb=1 / open_gop=0 / weightp=2 / keyint=250 / keyint_min=23 / scenecut=45 / intra_refresh=0 / rc_lookahead=60 / rc=crf / mbtree=1 / crf=24.0000 / qcomp=0.70 / qpmin=10:10:10 / qpmax=51:51:51 / qpstep=4 / ip_ratio=1.40 / aq=3:1.00 / aq-sensitivity=10.00 / aq-factor=1.00:1.00:1.00 / aq2=0 / aq3=0
Language                                 : English
Default                                  : Yes
Forced                                   : No

Audio
ID                                       : 2
Format                                   : AAC
Format/Info                              : Advanced Audio Codec
Format profile                           : LC
Codec ID                                 : A_AAC
Duration                                 : 21 min 20 s
Bit rate                                 : 116 kb/s
Channel(s)                               : 2 channels
Channel positions                        : Front: L R
Sampling rate                            : 48.0 kHz
Frame rate                               : 46.875 FPS (1024 spf)
Compression mode                         : Lossy
Stream size                              : 17.6 MiB (8%)
Language                                 : Japanese
Default                                  : Yes
Forced                                   : No

Text #1
ID                                       : 3
Format                                   : ASS
Codec ID                                 : S_TEXT/ASS
Codec ID/Info                            : Advanced Sub Station Alpha
Duration                                 : 21 min 20 s
Bit rate                                 : 447 b/s
Count of elements                        : 716
Compression mode                         : Lossless
Stream size                              : 70.0 KiB (0%)
Title                                    : Commie Edited by *kBaraka*
Language                                 : English
Default                                  : Yes
Forced                                   : No

Text #2
ID                                       : 4
Format                                   : ASS
Codec ID                                 : S_TEXT/ASS
Codec ID/Info                            : Advanced Sub Station Alpha
Duration                                 : 21 min 20 s
Bit rate                                 : 341 b/s
Count of elements                        : 593
Compression mode                         : Lossless
Stream size                              : 53.4 KiB (0%)
Title                                    : Cthuko
Language                                 : English
Default                                  : No
Forced                                   : No

Text #3
ID                                       : 5
Format                                   : ASS
Codec ID                                 : S_TEXT/ASS
Codec ID/Info                            : Advanced Sub Station Alpha
Duration                                 : 21 min 20 s
Bit rate                                 : 330 b/s
Count of elements                        : 573
Compression mode                         : Lossless
Stream size                              : 51.6 KiB (0%)
Title                                    : SallySubs
Language                                 : English
Default                                  : No
Forced                                   : No

Menu
00:00:00.000                             : en:Intro / en:Opening / en:Ending
00:02:28.022                             : en:Part A
00:10:53.069                             : en:Part B
00:20:30.103                             : en:Outro
00:21:00.133                             : en:Preview

Other Files in this Torrent
(Hi10)_One-Punch_Man_-_03_(BD_1080p)_(Beatrice-Commie-Cthuko)_(651C52CF).mkv
beta
Anime DDL+NZB mirror
Current Time: 23/01/2022 12:56



About/FAQs

Discord