(Hi10)_One-Punch_Man_Special_-_02_(BD_1080p)_(Beatrice-Hi10-Sally)_(0B6E7E8B).mkv


File Size76.70 MB (80,425,923 bytes)
DownloadClickNUpload | Go4Up | Jheberg | MultiUp
  • BdUpload
  • DownAce
  • Fichier
  • FileCloud
  • Filerio
  • FilesCdn
  • IndiShare
  • Kbagi
  • Turbobit
  • UpToBox
  • Uppit
  • ZippyShare
| OpenLoad | Sendspace | SolidFiles | ZippyShare
HashesCRC32: 0B6E7E8B, MD5: F307579340FD778AFCEF8CD157DF4D6F, SHA1: 6ED543788156A2DE0DB2809A6162658795D115D5, SHA256: ACEBE51542136B2BA2E79766C1AD88253D67DDB3484EE4832EB17E91DAE85F65, ED2K: F34FF67FF955FB7A5430DD85725F554E
Screenshots
screenshotscreenshotscreenshotscreenshotscreenshot
SubtitlesAll Attachments | Edited by *kBaraka* [eng, ASS], SallySubs [eng, ASS]
Additional Info
General
Unique ID                                : 253851494083372474294920231961879935364 (0xBEFA04F6A10952E79F7F30EB1BE87984)
Complete name                            : (Hi10)_One-Punch_Man_Special_-_02_(BD_1080p)_(Beatrice-Hi10-Sally)_(0B6E7E8B).mkv
Format                                   : Matroska
Format version                           : Version 4 / Version 2
File size                                : 76.7 MiB
Duration                                 : 11 min 39 s
Overall bit rate                         : 919 kb/s
Movie name                               : One-Punch Man Special - 02: The Disciple Who Stinks At Storytelling
Encoded date                             : UTC 2016-12-27 20:12:06
Writing application                      : mkvmerge v7.8.0 ('River Man') 32bit built on Mar 27 2015 16:18:02
Writing library                          : libebml v1.3.1 + libmatroska v1.4.2
Attachments                              : Brush Strokes.ttf / DISTInkingFxd-Bold.otf / JENKINSV2.TTF / PTS75F.ttf / PTS76F.ttf / ROSARIO-BOLD.OTF / ROSARIO-BOLDITALIC.OTF

Video
ID                                       : 1
Format                                   : AVC
Format/Info                              : Advanced Video Codec
Format profile                           : High 10@L5.1
Format settings, CABAC                   : Yes
Format settings, ReFrames                : 16 frames
Codec ID                                 : V_MPEG4/ISO/AVC
Duration                                 : 11 min 39 s
Bit rate                                 : 790 kb/s
Width                                    : 1 920 pixels
Height                                   : 1 080 pixels
Display aspect ratio                     : 16:9
Frame rate mode                          : Constant
Frame rate                               : 23.976 (24000/1001) FPS
Color space                              : YUV
Chroma subsampling                       : 4:2:0
Bit depth                                : 10 bits
Scan type                                : Progressive
Bits/(Pixel*Frame)                       : 0.016
Stream size                              : 65.9 MiB (86%)
Writing library                          : x264 core 148 r2705+54 9f484c1 t_mod_Custom [10-bit@all X86_64]
Encoding settings                        : cabac=1 / ref=16 / deblock=1:1:1 / analyse=0x3:0x133 / me=umh / subme=10 / psy=1 / fade_compensate=0.00 / psy_rd=0.60:0.15 / mixed_ref=1 / me_range=24 / chroma_me=1 / trellis=2 / 8x8dct=1 / cqm=0 / deadzone=21,11 / fast_pskip=1 / chroma_qp_offset=-3 / threads=34 / lookahead_threads=8 / sliced_threads=0 / nr=0 / decimate=1 / interlaced=0 / bluray_compat=0 / constrained_intra=0 / fgo=0 / bframes=10 / b_pyramid=2 / b_adapt=2 / b_bias=0 / direct=3 / weightb=1 / open_gop=0 / weightp=2 / keyint=250 / keyint_min=23 / scenecut=45 / intra_refresh=0 / rc_lookahead=60 / rc=crf / mbtree=1 / crf=24.0000 / qcomp=0.70 / qpmin=10:10:10 / qpmax=51:51:51 / qpstep=4 / ip_ratio=1.40 / aq=3:1.00 / aq-sensitivity=10.00 / aq-factor=1.00:1.00:1.00 / aq2=0 / aq3=0
Language                                 : English
Default                                  : Yes
Forced                                   : No

Audio
ID                                       : 2
Format                                   : AAC
Format/Info                              : Advanced Audio Codec
Format profile                           : LC
Codec ID                                 : A_AAC
Duration                                 : 11 min 39 s
Bit rate                                 : 113 kb/s
Channel(s)                               : 2 channels
Channel positions                        : Front: L R
Sampling rate                            : 48.0 kHz
Frame rate                               : 46.875 FPS (1024 spf)
Compression mode                         : Lossy
Stream size                              : 9.39 MiB (12%)
Language                                 : Japanese
Default                                  : Yes
Forced                                   : No

Text #1
ID                                       : 3
Format                                   : ASS
Codec ID                                 : S_TEXT/ASS
Codec ID/Info                            : Advanced Sub Station Alpha
Duration                                 : 10 min 1 s
Bit rate                                 : 248 b/s
Count of elements                        : 227
Compression mode                         : Lossless
Stream size                              : 18.3 KiB (0%)
Title                                    : Edited by *kBaraka*
Language                                 : English
Default                                  : Yes
Forced                                   : No

Text #2
ID                                       : 4
Format                                   : ASS
Codec ID                                 : S_TEXT/ASS
Codec ID/Info                            : Advanced Sub Station Alpha
Duration                                 : 10 min 1 s
Bit rate                                 : 247 b/s
Count of elements                        : 226
Compression mode                         : Lossless
Stream size                              : 18.2 KiB (0%)
Title                                    : SallySubs
Language                                 : English
Default                                  : No
Forced                                   : No

Menu
00:00:00.000                             : en:Main
00:10:05.021                             : en:Ending

Other Files in this Torrent
(Hi10)_One-Punch_Man_Special_-_02_(BD_1080p)_(Beatrice-Hi10-Sally)_(0B6E7E8B).mkv
beta
Anime DDL+NZB mirror
Current Time: 27/11/2021 17:20



About/FAQs

Discord