(Hi10)_One-Punch_Man_-_06_(BD_1080p)_(Beatrice-Commie-Cthuko)_(D7851524).mkv


File Size225.1 MB (236,020,027 bytes)
DownloadClickNUpload | Go4Up | Jheberg | MultiUp
  • BdUpload
  • DownAce
  • Fichier
  • FileCloud
  • Filerio
  • FilesCdn
  • IndiShare
  • Kbagi
  • Turbobit
  • UpToBox
  • Uppit
| OpenLoad | Sendspace | SolidFiles | ZippyShare
HashesCRC32: D7851524, MD5: 320DC7B3FE34CA3676E94E08B91D4068, SHA1: 06FA0A5DB6177E2F5E5EEF1B99FEF2B9F86C3D4C, SHA256: 7F1B674BD7A932D32F4046DAD30A639BEB24DB47DB92B9714BD046C951154CB6, ED2K: 49BC046EA69A124D1E85BC20B40207A2
Screenshots
screenshotscreenshotscreenshotscreenshotscreenshot
SubtitlesAll Attachments | Commie Edited by *kBaraka* [eng, ASS], Cthuko [eng, ASS], SallySubs [eng, ASS]
Additional Info
General
Unique ID                                : 234054563360947930068823960347200816889 (0xB01544EB959C562F8C0D57B4C6B986F9)
Complete name                            : (Hi10)_One-Punch_Man_-_06_(BD_1080p)_(Beatrice-Commie-Cthuko)_(D7851524).mkv
Format                                   : Matroska
Format version                           : Version 4 / Version 2
File size                                : 225 MiB
Duration                                 : 21 min 20 s
Overall bit rate                         : 1 475 kb/s
Movie name                               : One-Punch Man - 06: The Terrifying City
Encoded date                             : UTC 2016-12-27 19:14:43
Writing application                      : mkvmerge v7.8.0 ('River Man') 32bit built on Mar 27 2015 16:18:02
Writing library                          : libebml v1.3.1 + libmatroska v1.4.2
Attachments                              : AdobeHeiti-Kami.ttf / AGaramondPro-Bold.otf / ALLER_LT.TTF / Aller_Rg.ttf / AppleGaramond-Bold.TTF / Brush Strokes.ttf / BrushStrokes-Bold.ttf / CentraleSansRnd-ExtraBold.ttf / DISTInkingFxd-Bold.otf / GillSansStd-Bold.otf / PTS75F.ttf / PTS76F.ttf / ROSARIO-BOLD.OTF / ROSARIO-BOLDITALIC.OTF / SubClearSans-Bold.ttf / Swiss 721 Thin BT.ttf / SWZ721M.ttf / The Lost Paintings.ttf / Ubuntu-B.ttf / Ubuntu-BI.ttf

Video
ID                                       : 1
Format                                   : AVC
Format/Info                              : Advanced Video Codec
Format profile                           : High 10@L5.1
Format settings, CABAC                   : Yes
Format settings, ReFrames                : 16 frames
Codec ID                                 : V_MPEG4/ISO/AVC
Duration                                 : 21 min 20 s
Bit rate                                 : 1 150 kb/s
Width                                    : 1 920 pixels
Height                                   : 1 080 pixels
Display aspect ratio                     : 16:9
Frame rate mode                          : Constant
Frame rate                               : 23.976 (24000/1001) FPS
Color space                              : YUV
Chroma subsampling                       : 4:2:0
Bit depth                                : 10 bits
Scan type                                : Progressive
Bits/(Pixel*Frame)                       : 0.023
Stream size                              : 175 MiB (78%)
Writing library                          : x264 core 148 r2705+54 9f484c1 t_mod_Custom [10-bit@all X86_64]
Encoding settings                        : cabac=1 / ref=16 / deblock=1:1:1 / analyse=0x3:0x133 / me=umh / subme=10 / psy=1 / fade_compensate=0.00 / psy_rd=0.60:0.15 / mixed_ref=1 / me_range=24 / chroma_me=1 / trellis=2 / 8x8dct=1 / cqm=0 / deadzone=21,11 / fast_pskip=1 / chroma_qp_offset=-3 / threads=34 / lookahead_threads=8 / sliced_threads=0 / nr=0 / decimate=1 / interlaced=0 / bluray_compat=0 / constrained_intra=0 / fgo=0 / bframes=10 / b_pyramid=2 / b_adapt=2 / b_bias=0 / direct=3 / weightb=1 / open_gop=0 / weightp=2 / keyint=250 / keyint_min=23 / scenecut=45 / intra_refresh=0 / rc_lookahead=60 / rc=crf / mbtree=1 / crf=24.0000 / qcomp=0.70 / qpmin=10:10:10 / qpmax=51:51:51 / qpstep=4 / ip_ratio=1.40 / aq=3:1.00 / aq-sensitivity=10.00 / aq-factor=1.00:1.00:1.00 / aq2=0 / aq3=0
Language                                 : English
Default                                  : Yes
Forced                                   : No

Audio
ID                                       : 2
Format                                   : AAC
Format/Info                              : Advanced Audio Codec
Format profile                           : LC
Codec ID                                 : A_AAC
Duration                                 : 21 min 20 s
Bit rate                                 : 113 kb/s
Channel(s)                               : 2 channels
Channel positions                        : Front: L R
Sampling rate                            : 48.0 kHz
Frame rate                               : 46.875 FPS (1024 spf)
Compression mode                         : Lossy
Stream size                              : 17.3 MiB (8%)
Language                                 : Japanese
Default                                  : Yes
Forced                                   : No

Text #1
ID                                       : 3
Format                                   : ASS
Codec ID                                 : S_TEXT/ASS
Codec ID/Info                            : Advanced Sub Station Alpha
Duration                                 : 21 min 17 s
Bit rate                                 : 4 856 b/s
Count of elements                        : 2955
Compression mode                         : Lossless
Stream size                              : 757 KiB (0%)
Title                                    : Commie Edited by *kBaraka*
Language                                 : English
Default                                  : Yes
Forced                                   : No

Text #2
ID                                       : 4
Format                                   : ASS
Codec ID                                 : S_TEXT/ASS
Codec ID/Info                            : Advanced Sub Station Alpha
Duration                                 : 21 min 17 s
Bit rate                                 : 181 kb/s
Count of elements                        : 3514
Compression mode                         : Lossless
Stream size                              : 27.5 MiB (12%)
Title                                    : Cthuko
Language                                 : English
Default                                  : No
Forced                                   : No

Text #3
ID                                       : 5
Format                                   : ASS
Codec ID                                 : S_TEXT/ASS
Codec ID/Info                            : Advanced Sub Station Alpha
Duration                                 : 21 min 17 s
Bit rate                                 : 397 b/s
Count of elements                        : 625
Compression mode                         : Lossless
Stream size                              : 62.0 KiB (0%)
Title                                    : SallySubs
Language                                 : English
Default                                  : No
Forced                                   : No

Menu
00:00:00.000                             : en:Intro / en:Opening / en:Ending
00:03:08.980                             : en:Part A
00:08:39.018                             : en:Part B
00:19:48.020                             : en:Outro
00:21:00.050                             : en:Preview

Other Files in this Torrent
(Hi10)_One-Punch_Man_-_06_(BD_1080p)_(Beatrice-Commie-Cthuko)_(D7851524).mkv
beta
Anime DDL+NZB mirror
Current Time: 27/11/2021 17:52



About/FAQs

Discord