(Hi10)_One-Punch_Man_-_05_(BD_1080p)_(Beatrice-Commie-Cthuko)_(B27ABB5D).mkv


File Size221.0 MB (231,698,252 bytes)
DownloadClickNUpload | Go4Up | Jheberg | MultiUp
  • BdUpload
  • DownAce
  • Fichier
  • FileCloud
  • Filerio
  • FilesCdn
  • IndiShare
  • Kbagi
  • Turbobit
  • UpToBox
  • Uppit
| OpenLoad | Sendspace | SolidFiles | ZippyShare
HashesCRC32: B27ABB5D, MD5: F04661E766911DC4E2B0A00A8F70E1E6, SHA1: 1BB370526350753F879EC2F8C823A31B3C1D1356, SHA256: 8BEBB0EF3AC52C72460423A24E8CEE2A3070A8939C49374751F081DBE99C5F11, ED2K: E7A307F6BFE303063F9494BCBA6053D8
Screenshots
screenshotscreenshotscreenshotscreenshotscreenshot
SubtitlesAll Attachments | Commie Edited by *kBaraka* [eng, ASS], Cthuko [eng, ASS], SallySubs [eng, ASS]
Additional Info
General
Unique ID                                : 230661815081639372472546643092166770256 (0xAD87D983EC6FA742B093EE2127657E50)
Complete name                            : (Hi10)_One-Punch_Man_-_05_(BD_1080p)_(Beatrice-Commie-Cthuko)_(B27ABB5D).mkv
Format                                   : Matroska
Format version                           : Version 4 / Version 2
File size                                : 221 MiB
Duration                                 : 21 min 20 s
Overall bit rate                         : 1 448 kb/s
Movie name                               : One-Punch Man - 05: The Ultimate Master
Encoded date                             : UTC 2016-12-28 11:52:12
Writing application                      : mkvmerge v7.8.0 ('River Man') 32bit built on Mar 27 2015 16:18:02
Writing library                          : libebml v1.3.1 + libmatroska v1.4.2
Attachments                              : AdobeHeiti-Kami.ttf / AllThatMatters.ttf / ARLRDBD.TTF / Averia-Light.ttf / Brush Strokes.ttf / CAMBRIA.TTC / CAMBRIAB.TTF / CentraleSansRnd-ExtraBold.ttf / Cheboyga.ttf / CK Marker.ttf / Copybook.TTF / CREABBB.TTF / DFGRuLeiWwcw.ttf / DFPLeiSho-SB.ttf / PTS75F.ttf / PTS76F.ttf / ROSARIO-BOLD.OTF / ROSARIO-BOLDITALIC.OTF / SubClearSans-Bold.ttf / SWZ721H.TTF / Ubuntu-B.ttf / Ubuntu-BI.ttf

Video
ID                                       : 1
Format                                   : AVC
Format/Info                              : Advanced Video Codec
Format profile                           : High 10@L5.1
Format settings, CABAC                   : Yes
Format settings, ReFrames                : 16 frames
Codec ID                                 : V_MPEG4/ISO/AVC
Duration                                 : 21 min 20 s
Bit rate                                 : 1 278 kb/s
Width                                    : 1 920 pixels
Height                                   : 1 080 pixels
Display aspect ratio                     : 16:9
Frame rate mode                          : Constant
Frame rate                               : 23.976 (24000/1001) FPS
Color space                              : YUV
Chroma subsampling                       : 4:2:0
Bit depth                                : 10 bits
Scan type                                : Progressive
Bits/(Pixel*Frame)                       : 0.026
Stream size                              : 195 MiB (88%)
Writing library                          : x264 core 148 r2705+54 9f484c1 t_mod_Custom [10-bit@all X86_64]
Encoding settings                        : cabac=1 / ref=16 / deblock=1:1:1 / analyse=0x3:0x133 / me=umh / subme=10 / psy=1 / fade_compensate=0.00 / psy_rd=0.60:0.15 / mixed_ref=1 / me_range=24 / chroma_me=1 / trellis=2 / 8x8dct=1 / cqm=0 / deadzone=21,11 / fast_pskip=1 / chroma_qp_offset=-3 / threads=34 / lookahead_threads=8 / sliced_threads=0 / nr=0 / decimate=1 / interlaced=0 / bluray_compat=0 / constrained_intra=0 / fgo=0 / bframes=10 / b_pyramid=2 / b_adapt=2 / b_bias=0 / direct=3 / weightb=1 / open_gop=0 / weightp=2 / keyint=250 / keyint_min=23 / scenecut=45 / intra_refresh=0 / rc_lookahead=60 / rc=crf / mbtree=1 / crf=24.0000 / qcomp=0.70 / qpmin=10:10:10 / qpmax=51:51:51 / qpstep=4 / ip_ratio=1.40 / aq=3:1.00 / aq-sensitivity=10.00 / aq-factor=1.00:1.00:1.00 / aq2=0 / aq3=0
Language                                 : English
Default                                  : Yes
Forced                                   : No

Audio
ID                                       : 2
Format                                   : AAC
Format/Info                              : Advanced Audio Codec
Format profile                           : LC
Codec ID                                 : A_AAC
Duration                                 : 21 min 20 s
Bit rate                                 : 111 kb/s
Channel(s)                               : 2 channels
Channel positions                        : Front: L R
Sampling rate                            : 48.0 kHz
Frame rate                               : 46.875 FPS (1024 spf)
Compression mode                         : Lossy
Stream size                              : 16.9 MiB (8%)
Language                                 : Japanese
Default                                  : Yes
Forced                                   : No

Text #1
ID                                       : 3
Format                                   : ASS
Codec ID                                 : S_TEXT/ASS
Codec ID/Info                            : Advanced Sub Station Alpha
Duration                                 : 21 min 18 s
Bit rate                                 : 3 507 b/s
Count of elements                        : 3546
Compression mode                         : Lossless
Stream size                              : 547 KiB (0%)
Title                                    : Commie Edited by *kBaraka*
Language                                 : English
Default                                  : Yes
Forced                                   : No

Text #2
ID                                       : 4
Format                                   : ASS
Codec ID                                 : S_TEXT/ASS
Codec ID/Info                            : Advanced Sub Station Alpha
Duration                                 : 21 min 18 s
Bit rate                                 : 7 571 b/s
Count of elements                        : 5154
Compression mode                         : Lossless
Stream size                              : 1.15 MiB (1%)
Title                                    : Cthuko
Language                                 : English
Default                                  : No
Forced                                   : No

Text #3
ID                                       : 5
Format                                   : ASS
Codec ID                                 : S_TEXT/ASS
Codec ID/Info                            : Advanced Sub Station Alpha
Duration                                 : 21 min 18 s
Bit rate                                 : 7 464 b/s
Count of elements                        : 5020
Compression mode                         : Lossless
Stream size                              : 1.14 MiB (1%)
Title                                    : SallySubs
Language                                 : English
Default                                  : No
Forced                                   : No

Menu
00:00:00.000                             : en:Intro / en:Opening / en:Ending
00:01:09.986                             : en:Part A
00:10:34.967                             : en:Part B
00:20:31.980                             : en:Outro
00:21:00.008                             : en:Preview

Other Files in this Torrent
(Hi10)_One-Punch_Man_-_05_(BD_1080p)_(Beatrice-Commie-Cthuko)_(B27ABB5D).mkv
beta
Anime DDL+NZB mirror
Current Time: 27/11/2021 16:52



About/FAQs

Discord