(Hi10)_One-Punch_Man_-_04_(BD_1080p)_(Beatrice-Commie-Cthuko)_(81102555).mkv


File Size217.0 MB (227,546,743 bytes)
DownloadClickNUpload | Go4Up
  • DownAce
  • FileFactory
  • KatFile
  • Oboom
  • OwnDrives
  • Share-Online
  • TusFiles
  • UploadGig
  • Uppit
  • UsersCloud
| Jheberg | MultiUp
  • BdUpload
  • DownAce
  • Fichier
  • FileCloud
  • Filerio
  • FilesCdn
  • IndiShare
  • Kbagi
  • Turbobit
  • UpToBox
  • Uppit
| OpenLoad | Sendspace | SolidFiles | ZippyShare
HashesCRC32: 81102555, MD5: 50E5B928003558C061E161122D63E76D, SHA1: D22EA9536C561129237A61846A8E1B16E10F78BB, SHA256: D7F4DE79589418A20572FC9679CC3691CB54588F6978F186D51875065AD93473, ED2K: 6471C4E68E5B0FE165FE1B294F0CF2FB
Screenshots
screenshotscreenshotscreenshotscreenshotscreenshot
SubtitlesAll Attachments | Commie Edited by *kBaraka* [eng, ASS], Cthuko [eng, ASS], SallySubs [eng, ASS]
Additional Info
General
Unique ID                                : 174328370916300099996892611806144155852 (0x83266C47C9AC87F7AE2DD6D9007AD0CC)
Complete name                            : (Hi10)_One-Punch_Man_-_04_(BD_1080p)_(Beatrice-Commie-Cthuko)_(81102555).mkv
Format                                   : Matroska
Format version                           : Version 4 / Version 2
File size                                : 217 MiB
Duration                                 : 21 min 20 s
Overall bit rate                         : 1 422 kb/s
Movie name                               : One-Punch Man - 04: The Modern Ninja
Encoded date                             : UTC 2016-12-28 11:51:43
Writing application                      : mkvmerge v7.8.0 ('River Man') 32bit built on Mar 27 2015 16:18:02
Writing library                          : libebml v1.3.1 + libmatroska v1.4.2
Attachments                              : APJFK-AnoHana.ttf / ARCENA.ttf / ARLRDBD.TTF / Brush Strokes.ttf / CentraleSansRnd-ExtraBold.ttf / ITC Avant Garde Gothic LT Condensed Medium.ttf / JandaManateeSolid.ttf / PTS75F.ttf / PTS76F.ttf / RolandBecker.ttf / ROSARIO-BOLD.OTF / ROSARIO-BOLDITALIC.OTF / SWZ721H.TTF / SWZ721L.ttf / SWZ721M.ttf / Ubuntu-B.ttf / Ubuntu-BI.ttf

Video
ID                                       : 1
Format                                   : AVC
Format/Info                              : Advanced Video Codec
Format profile                           : High 10@L5.1
Format settings, CABAC                   : Yes
Format settings, ReFrames                : 16 frames
Codec ID                                 : V_MPEG4/ISO/AVC
Duration                                 : 21 min 20 s
Bit rate                                 : 1 290 kb/s
Width                                    : 1 920 pixels
Height                                   : 1 080 pixels
Display aspect ratio                     : 16:9
Frame rate mode                          : Constant
Frame rate                               : 23.976 (24000/1001) FPS
Color space                              : YUV
Chroma subsampling                       : 4:2:0
Bit depth                                : 10 bits
Scan type                                : Progressive
Bits/(Pixel*Frame)                       : 0.026
Stream size                              : 197 MiB (91%)
Writing library                          : x264 core 148 r2705+54 9f484c1 t_mod_Custom [10-bit@all X86_64]
Encoding settings                        : cabac=1 / ref=16 / deblock=1:1:1 / analyse=0x3:0x133 / me=umh / subme=10 / psy=1 / fade_compensate=0.00 / psy_rd=0.60:0.15 / mixed_ref=1 / me_range=24 / chroma_me=1 / trellis=2 / 8x8dct=1 / cqm=0 / deadzone=21,11 / fast_pskip=1 / chroma_qp_offset=-3 / threads=34 / lookahead_threads=8 / sliced_threads=0 / nr=0 / decimate=1 / interlaced=0 / bluray_compat=0 / constrained_intra=0 / fgo=0 / bframes=10 / b_pyramid=2 / b_adapt=2 / b_bias=0 / direct=3 / weightb=1 / open_gop=0 / weightp=2 / keyint=250 / keyint_min=23 / scenecut=45 / intra_refresh=0 / rc_lookahead=60 / rc=crf / mbtree=1 / crf=24.0000 / qcomp=0.70 / qpmin=10:10:10 / qpmax=51:51:51 / qpstep=4 / ip_ratio=1.40 / aq=3:1.00 / aq-sensitivity=10.00 / aq-factor=1.00:1.00:1.00 / aq2=0 / aq3=0
Language                                 : English
Default                                  : Yes
Forced                                   : No

Audio
ID                                       : 2
Format                                   : AAC
Format/Info                              : Advanced Audio Codec
Format profile                           : LC
Codec ID                                 : A_AAC
Duration                                 : 21 min 20 s
Bit rate                                 : 111 kb/s
Channel(s)                               : 2 channels
Channel positions                        : Front: L R
Sampling rate                            : 48.0 kHz
Frame rate                               : 46.875 FPS (1024 spf)
Compression mode                         : Lossy
Stream size                              : 17.0 MiB (8%)
Language                                 : Japanese
Default                                  : Yes
Forced                                   : No

Text #1
ID                                       : 3
Format                                   : ASS
Codec ID                                 : S_TEXT/ASS
Codec ID/Info                            : Advanced Sub Station Alpha
Duration                                 : 21 min 18 s
Bit rate                                 : 570 b/s
Count of elements                        : 750
Compression mode                         : Lossless
Stream size                              : 89.1 KiB (0%)
Title                                    : Commie Edited by *kBaraka*
Language                                 : English
Default                                  : Yes
Forced                                   : No

Text #2
ID                                       : 4
Format                                   : ASS
Codec ID                                 : S_TEXT/ASS
Codec ID/Info                            : Advanced Sub Station Alpha
Duration                                 : 21 min 18 s
Bit rate                                 : 717 b/s
Count of elements                        : 883
Compression mode                         : Lossless
Stream size                              : 112 KiB (0%)
Title                                    : Cthuko
Language                                 : English
Default                                  : No
Forced                                   : No

Text #3
ID                                       : 5
Format                                   : ASS
Codec ID                                 : S_TEXT/ASS
Codec ID/Info                            : Advanced Sub Station Alpha
Duration                                 : 21 min 18 s
Bit rate                                 : 714 b/s
Count of elements                        : 917
Compression mode                         : Lossless
Stream size                              : 111 KiB (0%)
Title                                    : SallySubs
Language                                 : English
Default                                  : No
Forced                                   : No

Menu
00:00:00.000                             : en:Intro / en:Opening / en:Ending
00:01:04.981                             : en:Part A
00:10:14.989                             : en:Part B
00:20:40.030                             : en:Outro
00:21:00.050                             : en:Preview

Other Files in this Torrent
(Hi10)_One-Punch_Man_-_04_(BD_1080p)_(Beatrice-Commie-Cthuko)_(81102555).mkv
beta
Anime DDL+NZB mirror
Current Time: 20/05/2022 03:44



About/FAQs

Discord