(Hi10)_One-Punch_Man_-_12_(BD_1080p)_(Beatrice-Commie-Cthuko)_(C81A4D54).mkv


File Size368.9 MB (386,790,964 bytes)
DownloadClickNUpload | Go4Up | Jheberg | MultiUp
  • BdUpload
  • DownAce
  • Fichier
  • FileCloud
  • Filerio
  • FilesCdn
  • IndiShare
  • Kbagi
  • Turbobit
  • UpToBox
  • Uppit
| OpenLoad | SolidFiles | ZippyShare
Sendspace: Part1, Part2
HashesCRC32: C81A4D54, MD5: 88F9A2001BAD32B1440E197B8237A576, SHA1: 4C9FDA7201C37872EC4970E076F0335E13B10ECF, SHA256: C259D8F5542A9B0D8CB118C45EC12A9833746D241FC0A34299043D74B5649304, ED2K: 9A28C33C560FEC554957BE686695737D
Screenshots
screenshotscreenshotscreenshotscreenshotscreenshot
SubtitlesAll Attachments | Commie Edited by *kBaraka* [eng, ASS], Cthuko [eng, ASS], SallySubs [eng, ASS]
Additional Info
General
Unique ID                                : 247244378919334503052401399637068962992 (0xBA0189090AB3FF32A2AFDDA5AF275CB0)
Complete name                            : (Hi10)_One-Punch_Man_-_12_(BD_1080p)_(Beatrice-Commie-Cthuko)_(C81A4D54).mkv
Format                                   : Matroska
Format version                           : Version 4 / Version 2
File size                                : 369 MiB
Duration                                 : 24 min 1 s
Overall bit rate                         : 2 147 kb/s
Movie name                               : One-Punch Man - 12: The Strongest Hero
Encoded date                             : UTC 2016-12-27 19:57:39
Writing application                      : mkvmerge v7.8.0 ('River Man') 32bit built on Mar 27 2015 16:18:02
Writing library                          : libebml v1.3.1 + libmatroska v1.4.2
Attachments                              : AdobeHeiti-Kami.ttf / Brush Strokes.ttf / Franchise-Bold-hinted.ttf / JennaSue.ttf / PTS75F.ttf / PTS76F.ttf / ROSARIO-BOLD.OTF / ROSARIO-BOLDITALIC.OTF / SubClearSans-Bold.ttf / SWZ721H.TTF / The Best Night.ttf / Ubuntu-B.ttf / Ubuntu-BI.ttf

Video
ID                                       : 1
Format                                   : AVC
Format/Info                              : Advanced Video Codec
Format profile                           : High 10@L5.1
Format settings, CABAC                   : Yes
Format settings, ReFrames                : 16 frames
Codec ID                                 : V_MPEG4/ISO/AVC
Duration                                 : 24 min 1 s
Bit rate                                 : 1 972 kb/s
Width                                    : 1 920 pixels
Height                                   : 1 080 pixels
Display aspect ratio                     : 16:9
Frame rate mode                          : Constant
Frame rate                               : 23.976 (24000/1001) FPS
Color space                              : YUV
Chroma subsampling                       : 4:2:0
Bit depth                                : 10 bits
Scan type                                : Progressive
Bits/(Pixel*Frame)                       : 0.040
Stream size                              : 339 MiB (92%)
Writing library                          : x264 core 148 r2705+54 9f484c1 t_mod_Custom [10-bit@all X86_64]
Encoding settings                        : cabac=1 / ref=16 / deblock=1:1:1 / analyse=0x3:0x133 / me=umh / subme=10 / psy=1 / fade_compensate=0.00 / psy_rd=0.60:0.15 / mixed_ref=1 / me_range=24 / chroma_me=1 / trellis=2 / 8x8dct=1 / cqm=0 / deadzone=21,11 / fast_pskip=1 / chroma_qp_offset=-3 / threads=34 / lookahead_threads=8 / sliced_threads=0 / nr=0 / decimate=1 / interlaced=0 / bluray_compat=0 / constrained_intra=0 / fgo=0 / bframes=10 / b_pyramid=2 / b_adapt=2 / b_bias=0 / direct=3 / weightb=1 / open_gop=0 / weightp=2 / keyint=250 / keyint_min=23 / scenecut=45 / intra_refresh=0 / rc_lookahead=60 / rc=crf / mbtree=1 / crf=24.0000 / qcomp=0.70 / qpmin=10:10:10 / qpmax=51:51:51 / qpstep=4 / ip_ratio=1.40 / aq=3:1.00 / aq-sensitivity=10.00 / aq-factor=1.00:1.00:1.00 / aq2=0 / aq3=0
Language                                 : English
Default                                  : Yes
Forced                                   : No

Audio
ID                                       : 2
Format                                   : AAC
Format/Info                              : Advanced Audio Codec
Format profile                           : LC
Codec ID                                 : A_AAC
Duration                                 : 24 min 1 s
Bit rate                                 : 110 kb/s
Channel(s)                               : 2 channels
Channel positions                        : Front: L R
Sampling rate                            : 48.0 kHz
Frame rate                               : 46.875 FPS (1024 spf)
Compression mode                         : Lossy
Stream size                              : 19.0 MiB (5%)
Language                                 : Japanese
Default                                  : Yes
Forced                                   : No

Text #1
ID                                       : 3
Format                                   : ASS
Codec ID                                 : S_TEXT/ASS
Codec ID/Info                            : Advanced Sub Station Alpha
Duration                                 : 23 min 21 s
Bit rate                                 : 204 b/s
Count of elements                        : 461
Compression mode                         : Lossless
Stream size                              : 35.0 KiB (0%)
Title                                    : Commie Edited by *kBaraka*
Language                                 : English
Default                                  : Yes
Forced                                   : No

Text #2
ID                                       : 4
Format                                   : ASS
Codec ID                                 : S_TEXT/ASS
Codec ID/Info                            : Advanced Sub Station Alpha
Duration                                 : 23 min 18 s
Bit rate                                 : 39.1 kb/s
Count of elements                        : 45708
Compression mode                         : Lossless
Stream size                              : 6.51 MiB (2%)
Title                                    : Cthuko
Language                                 : English
Default                                  : No
Forced                                   : No

Text #3
ID                                       : 5
Format                                   : ASS
Codec ID                                 : S_TEXT/ASS
Codec ID/Info                            : Advanced Sub Station Alpha
Duration                                 : 23 min 18 s
Bit rate                                 : 146 b/s
Count of elements                        : 406
Compression mode                         : Lossless
Stream size                              : 25.0 KiB (0%)
Title                                    : SallySubs
Language                                 : English
Default                                  : No
Forced                                   : No

Menu
00:00:00.000                             : en:Intro
00:00:51.051                             : en:Part A
00:14:01.049                             : en:Part B
00:20:17.425                             : en:Ending
00:22:42.904                             : en:Outro

Other Files in this Torrent
(Hi10)_One-Punch_Man_-_12_(BD_1080p)_(Beatrice-Commie-Cthuko)_(C81A4D54).mkv
beta
Anime DDL+NZB mirror
Current Time: 27/11/2021 17:07



About/FAQs

Discord