(Hi10)_One-Punch_Man_-_09_(BD_1080p)_(Beatrice-Commie-Cthuko)_(3B317B81).mkv


File Size310.9 MB (325,953,164 bytes)
DownloadClickNUpload | Go4Up | Jheberg | MultiUp
  • BdUpload
  • DownAce
  • Fichier
  • FileCloud
  • Filerio
  • FilesCdn
  • IndiShare
  • Kbagi
  • Turbobit
  • UpToBox
  • Uppit
| OpenLoad | SolidFiles | ZippyShare
Sendspace: Part1, Part2
HashesCRC32: 3B317B81, MD5: 5C0CC8C1C59523CD959074F3678AE74B, SHA1: F9280398A001BE3DB335373411E4FA0849F4AA6F, SHA256: AD4007B3AAC7C0D683EFB2E95C9935F06D844FE83F01AF60C12940B0570930F3, ED2K: 78AA54B8408CE159180B2EFFE9880E65
Screenshots
screenshotscreenshotscreenshotscreenshotscreenshot
SubtitlesAll Attachments | Commie Edited by *kBaraka* [eng, ASS], Cthuko [eng, ASS], SallySubs [eng, ASS]
Additional Info
General
Unique ID                                : 237164042221131308312330459133566707971 (0xB26C221084DB8386BEFAF2ACCA66E903)
Complete name                            : (Hi10)_One-Punch_Man_-_09_(BD_1080p)_(Beatrice-Commie-Cthuko)_(3B317B81).mkv
Format                                   : Matroska
Format version                           : Version 4 / Version 2
File size                                : 311 MiB
Duration                                 : 21 min 20 s
Overall bit rate                         : 2 037 kb/s
Movie name                               : One-Punch Man - 09: Unyielding Justice
Encoded date                             : UTC 2016-12-27 19:20:59
Writing application                      : mkvmerge v7.8.0 ('River Man') 32bit built on Mar 27 2015 16:18:02
Writing library                          : libebml v1.3.1 + libmatroska v1.4.2
Attachments                              : AdobeHeiti-Kami.ttf / ALLER_LT.TTF / Aller_Rg.ttf / badankadonk.ttf / BadHandwriter.ttf / BeautifulEveryTime.ttf / bellgothicstd-black.otf / Blambot Pro Lite Bold.ttf / BOOKOS.TTF / Brush Strokes.ttf / Clannad_Round_Regular.ttf / Desperate-Regular.ttf / DISTInkingFxd-Bold.otf / fennrg.ttf / Grantham Bold.ttf / Hand Of Sean Pro.otf / Jennifers Hand Writing.ttf / PTS75F.ttf / PTS76F.ttf / ROSARIO-BOLD.OTF / ROSARIO-BOLDITALIC.OTF / SubClearSans-Bold.ttf / SwaggerLight.ttf / SWZ721M.ttf / Ubuntu-B.ttf / Ubuntu-BI.ttf

Video
ID                                       : 1
Format                                   : AVC
Format/Info                              : Advanced Video Codec
Format profile                           : High 10@L5.1
Format settings, CABAC                   : Yes
Format settings, ReFrames                : 16 frames
Codec ID                                 : V_MPEG4/ISO/AVC
Duration                                 : 21 min 20 s
Bit rate                                 : 1 869 kb/s
Width                                    : 1 920 pixels
Height                                   : 1 080 pixels
Display aspect ratio                     : 16:9
Frame rate mode                          : Constant
Frame rate                               : 23.976 (24000/1001) FPS
Color space                              : YUV
Chroma subsampling                       : 4:2:0
Bit depth                                : 10 bits
Scan type                                : Progressive
Bits/(Pixel*Frame)                       : 0.038
Stream size                              : 285 MiB (92%)
Writing library                          : x264 core 148 r2705+54 9f484c1 t_mod_Custom [10-bit@all X86_64]
Encoding settings                        : cabac=1 / ref=16 / deblock=1:1:1 / analyse=0x3:0x133 / me=umh / subme=10 / psy=1 / fade_compensate=0.00 / psy_rd=0.60:0.15 / mixed_ref=1 / me_range=24 / chroma_me=1 / trellis=2 / 8x8dct=1 / cqm=0 / deadzone=21,11 / fast_pskip=1 / chroma_qp_offset=-3 / threads=34 / lookahead_threads=8 / sliced_threads=0 / nr=0 / decimate=1 / interlaced=0 / bluray_compat=0 / constrained_intra=0 / fgo=0 / bframes=10 / b_pyramid=2 / b_adapt=2 / b_bias=0 / direct=3 / weightb=1 / open_gop=0 / weightp=2 / keyint=250 / keyint_min=23 / scenecut=45 / intra_refresh=0 / rc_lookahead=60 / rc=crf / mbtree=1 / crf=24.0000 / qcomp=0.70 / qpmin=10:10:10 / qpmax=51:51:51 / qpstep=4 / ip_ratio=1.40 / aq=3:1.00 / aq-sensitivity=10.00 / aq-factor=1.00:1.00:1.00 / aq2=0 / aq3=0
Language                                 : English
Default                                  : Yes
Forced                                   : No

Audio
ID                                       : 2
Format                                   : AAC
Format/Info                              : Advanced Audio Codec
Format profile                           : LC
Codec ID                                 : A_AAC
Duration                                 : 21 min 20 s
Bit rate                                 : 116 kb/s
Channel(s)                               : 2 channels
Channel positions                        : Front: L R
Sampling rate                            : 48.0 kHz
Frame rate                               : 46.875 FPS (1024 spf)
Compression mode                         : Lossy
Stream size                              : 17.7 MiB (6%)
Language                                 : Japanese
Default                                  : Yes
Forced                                   : No

Text #1
ID                                       : 3
Format                                   : ASS
Codec ID                                 : S_TEXT/ASS
Codec ID/Info                            : Advanced Sub Station Alpha
Duration                                 : 21 min 16 s
Bit rate                                 : 4 591 b/s
Count of elements                        : 3658
Compression mode                         : Lossless
Stream size                              : 716 KiB (0%)
Title                                    : Commie Edited by *kBaraka*
Language                                 : English
Default                                  : Yes
Forced                                   : No

Text #2
ID                                       : 4
Format                                   : ASS
Codec ID                                 : S_TEXT/ASS
Codec ID/Info                            : Advanced Sub Station Alpha
Duration                                 : 21 min 17 s
Bit rate                                 : 7 429 b/s
Count of elements                        : 4174
Compression mode                         : Lossless
Stream size                              : 1.13 MiB (0%)
Title                                    : Cthuko
Language                                 : English
Default                                  : No
Forced                                   : No

Text #3
ID                                       : 5
Format                                   : ASS
Codec ID                                 : S_TEXT/ASS
Codec ID/Info                            : Advanced Sub Station Alpha
Duration                                 : 21 min 17 s
Bit rate                                 : 7 424 b/s
Count of elements                        : 4173
Compression mode                         : Lossless
Stream size                              : 1.13 MiB (0%)
Title                                    : SallySubs
Language                                 : English
Default                                  : No
Forced                                   : No

Menu
00:00:00.000                             : en:Intro / en:Opening / en:Ending
00:01:53.029                             : en:Part A
00:09:57.013                             : en:Part B
00:20:31.063                             : en:Outro
00:21:00.092                             : en:Preview

Other Files in this Torrent
(Hi10)_One-Punch_Man_-_09_(BD_1080p)_(Beatrice-Commie-Cthuko)_(3B317B81).mkv
beta
Anime DDL+NZB mirror
Current Time: 27/11/2021 17:22



About/FAQs

Discord