Extra/Clean Credits/[Exiled-Destiny]_Akame_Ga_Kill!_Extra_Cleean_Opening_I_(8B9542FE).mkv


File Size23.21 MB (24,341,649 bytes)
DownloadAnonFiles | ClickNUpload | DropAPK | Free | MultiUp
  • BdUpload
  • DownAce
  • Fichier
  • FileCloud
  • Filerio
  • FilesCdn
  • IndiShare
  • Kbagi
  • Turbobit
  • UpToBox
  • Uppit
| SolidFiles | ZippyShare
HashesCRC32: 8B9542FE, MD5: BA40DFF0FA581C311FF66B3D250F6D85, SHA1: 8C3253FDF44F2AA1FFEA8C66D23D7737873AF902, SHA256: 4388700FAB7B5297872D7AC9D8ACC4BED6AA80CE0F2ECB8A62692F1E1F329028, ED2K: 6E169BE2DF11D595D46CFD95CBB51D5A
Screenshots
screenshotscreenshot
Additional Info
General
Unique ID                                : 173215794549571392167100624535642224932 (0x82502607CA8DDB4B875CB80EA0E0B924)
Complete name                            : [Exiled-Destiny]_Akame_Ga_Kill!_Extra_Cleean_Opening_I_(8B9542FE).mkv
Format                                   : Matroska
Format version                           : Version 2
File size                                : 23.2 MiB
Duration                                 : 1 min 32 s
Overall bit rate                         : 2 115 kb/s
Encoded date                             : UTC 2016-05-14 03:55:40
Writing application                      : mkvmerge v4.0.0 ('The Stars were mine') built on Jun  6 2010 16:18:42
Writing library                          : libebml v1.0.0 + libmatroska v1.0.0

Video
ID                                       : 1
Format                                   : AVC
Format/Info                              : Advanced Video Codec
Format profile                           : High@L4.1
Format settings                          : CABAC / 9 Ref Frames
Format settings, CABAC                   : Yes
Format settings, ReFrames                : 9 frames
Codec ID                                 : V_MPEG4/ISO/AVC
Duration                                 : 1 min 32 s
Bit rate                                 : 1 849 kb/s
Width                                    : 720 pixels
Height                                   : 480 pixels
Display aspect ratio                     : 16:9
Original display aspect ratio            : 3:2
Frame rate mode                          : Constant
Frame rate                               : 24.000 FPS
Original frame rate                      : 29.970 (30000/1001) FPS
Color space                              : YUV
Chroma subsampling                       : 4:2:0
Bit depth                                : 8 bits
Scan type                                : Progressive
Bits/(Pixel*Frame)                       : 0.223
Stream size                              : 20.3 MiB (87%)
Writing library                          : x264 core 148 r2638 7599210
Encoding settings                        : cabac=1 / ref=9 / deblock=1:0:0 / analyse=0x3:0x133 / me=umh / subme=10 / psy=1 / psy_rd=0.40:0.00 / mixed_ref=1 / me_range=24 / chroma_me=1 / trellis=2 / 8x8dct=1 / cqm=0 / deadzone=21,11 / fast_pskip=1 / chroma_qp_offset=-2 / threads=6 / lookahead_threads=1 / sliced_threads=0 / nr=0 / decimate=1 / interlaced=0 / bluray_compat=0 / constrained_intra=0 / bframes=16 / b_pyramid=2 / b_adapt=2 / b_bias=16 / direct=3 / weightb=1 / open_gop=0 / weightp=2 / keyint=300 / keyint_min=29 / scenecut=40 / intra_refresh=0 / rc_lookahead=120 / rc=crf / mbtree=0 / crf=14.0 / qcomp=0.60 / qpmin=4 / qpmax=60 / qpstep=4 / vbv_maxrate=62500 / vbv_bufsize=78125 / crf_max=0.0 / nal_hrd=none / filler=0 / ip_ratio=1.40 / pb_ratio=1.30 / aq=1:0.30
Default                                  : Yes
Forced                                   : No
Color range                              : Limited
Matrix coefficients                      : BT.709

Audio
ID                                       : 2
Format                                   : AC-3
Format/Info                              : Audio Coding 3
Commercial name                          : Dolby Digital
Codec ID                                 : A_AC3
Duration                                 : 1 min 32 s
Bit rate mode                            : Constant
Bit rate                                 : 224 kb/s
Channel(s)                               : 2 channels
Channel layout                           : L R
Sampling rate                            : 48.0 kHz
Frame rate                               : 31.250 FPS (1536 SPF)
Bit depth                                : 16 bits
Compression mode                         : Lossy
Delay relative to video                  : 13 ms
Stream size                              : 2.46 MiB (11%)
Language                                 : English
Service kind                             : Complete Main
Default                                  : Yes
Forced                                   : No

Menu
00:00:00.000                             : en:Chapter 1

Other Files in this Torrent
Extra/Clean Credits/[Exiled-Destiny]_Akame_Ga_Kill!_Extra_Cleean_Opening_I_(8B9542FE).mkv
beta
Anime DDL+NZB mirror
Current Time: 17/06/2024 11:24



About/FAQs

Discord