File Size125.5 MB (131,604,580 bytes)
DownloadClickNUpload | Go4Up | Jheberg | MultiUp | OpenLoad | Sendspace | ZippyShare
HashesCRC32: 9A855310, MD5: CE51991459DC314BD63F19D569F5DAC6, SHA1: ABDE75DD881E541B7D384E87041F48FC5F0B8544, SHA256: F4A1B09D9DEC98ECDC3C8CD2B912D0774D02450E365F2155D33A15564E8DDAFE, ED2K: 356D35EB875DF2E0EFE1A45CCE62EBA4
Screenshots
screenshotscreenshotscreenshotscreenshotscreenshot
Additional Info
General
Complete name                            : Pokémon - S05 - EP270 [ATTKC][9A855310].mp4
Format                                   : MPEG-4
Format profile                           : Base Media / Version 2
Codec ID                                 : mp42 (isom/iso2/mp41)
File size                                : 126 MiB
Duration                                 : 21 min 31 s
Overall bit rate mode                    : Variable
Overall bit rate                         : 815 kb/s
Encoded date                             : UTC 2017-06-16 16:10:08
Tagged date                              : UTC 2017-06-16 16:10:08
Writing application                      : HandBrake 1.0.7 2017040900

Video
ID                                       : 1
Format                                   : HEVC
Format/Info                              : High Efficiency Video Coding
Format profile                           : Main@L3@Main
Codec ID                                 : hev1
Codec ID/Info                            : High Efficiency Video Coding
Duration                                 : 21 min 31 s
Bit rate                                 : 648 kb/s
Width                                    : 718 pixels
Height                                   : 480 pixels
Display aspect ratio                     : 4:3
Frame rate mode                          : Constant
Frame rate                               : 29.970 (30000/1001) FPS
Color space                              : YUV
Chroma subsampling                       : 4:2:0
Bit depth                                : 8 bits
Bits/(Pixel*Frame)                       : 0.063
Stream size                              : 99.8 MiB (80%)
Writing library                          : x265 2.1:[Windows][GCC 5.3.1][64 bit] 8bit
Encoding settings                        : wpp / ctu=64 / min-cu-size=8 / max-tu-size=32 / tu-intra-depth=1 / tu-inter-depth=1 / me=3 / subme=3 / merange=57 / no-rect / no-amp / max-merge=3 / temporal-mvp / no-early-skip / rskip / rdpenalty=0 / no-tskip / no-tskip-fast / no-strong-intra-smoothing / no-lossless / no-cu-lossless / no-constrained-intra / no-fast-intra / open-gop / no-temporal-layers / interlace=0 / keyint=300 / min-keyint=30 / scenecut=40 / rc-lookahead=25 / lookahead-slices=0 / bframes=4 / bframe-bias=0 / b-adapt=2 / ref=4 / limit-refs=3 / limit-modes / weightp / no-weightb / aq-mode=1 / qg-size=32 / aq-strength=1.00 / cbqpoffs=0 / crqpoffs=0 / rd=4 / psy-rd=2.00 / rdoq-level=2 / psy-rdoq=1.00 / log2-max-poc-lsb=8 / no-rd-refine / signhide / deblock=0:0 / sao / no-sao-non-deblock / b-pyramid / cutree / no-intra-refresh / rc=crf / crf=20.0 / qcomp=0.60 / qpmin=0 / qpmax=69 / qpstep=4 / ipratio=1.40 / pbratio=1.30
Encoded date                             : UTC 2017-06-16 16:10:08
Tagged date                              : UTC 2017-06-16 16:10:08
Color range                              : Limited
Color primaries                          : BT.601 NTSC
Transfer characteristics                 : BT.709
Matrix coefficients                      : BT.601
Menus                                    : 4
Codec configuration box                  : hvcC

Audio
ID                                       : 2
Format                                   : AAC LC
Format/Info                              : Advanced Audio Codec Low Complexity
Codec ID                                 : mp4a-40-2
Duration                                 : 21 min 31 s
Bit rate mode                            : Variable
Bit rate                                 : 160 kb/s
Channel(s)                               : 2 channels
Channel layout                           : L R
Sampling rate                            : 48.0 kHz
Frame rate                               : 46.875 FPS (1024 SPF)
Compression mode                         : Lossy
Stream size                              : 24.7 MiB (20%)
Title                                    : Stereo / Stereo
Language                                 : English
Default                                  : Yes
Alternate group                          : 1
Encoded date                             : UTC 2017-06-16 16:10:08
Tagged date                              : UTC 2017-06-16 16:10:08
Menus                                    : 4

Text
ID                                       : 3
Format                                   : Timed Text
Muxing mode                              : sbtl
Codec ID                                 : tx3g
Duration                                 : 21 min 30 s
Bit rate mode                            : Variable
Bit rate                                 : 109 b/s
Stream size                              : 17.1 KiB (0%)
Language                                 : English
Default                                  : Yes
Forced                                   : No
Alternate group                          : 3
Encoded date                             : UTC 2017-06-16 16:10:08
Tagged date                              : UTC 2017-06-16 16:10:08
Menus                                    : 4

Menu
ID                                       : 4
Codec ID                                 : text
Duration                                 : 21 min 31 s
Language                                 : English
Encoded date                             : UTC 2017-06-16 16:10:08
Tagged date                              : UTC 2017-06-16 16:10:08
Bit rate mode                            : CBR
Menu For                                 : 1,2,3
00:00:00.000                             : Chapter 21
00:01:26.186                             : Chapter 22
00:13:13.860                             : Chapter 23
00:21:00.693                             : Chapter 24

Other Files in this Torrent
Pokémon - S05 - EP270 [ATTKC][9A855310].mp4
beta
Anime DDL+NZB mirror
Current Time: 16/07/2024 14:44



About/FAQs

Discord