File Size334.0 MB (350,252,978 bytes)
DownloadClickNUpload | Go4Up | Jheberg | MultiUp | OpenLoad | ZippyShare
Sendspace: Part1, Part2
HashesCRC32: 786ECEEB, MD5: D21C5ED9D1B21F9D4700C34887E5DAAA, SHA1: A411FBA1F9C6B531401B3EEE9AAE69BBD4558623, SHA256: BE882E99C7EC86D9F9606D95D19E833507F6C98968D7A3E1B2D9310138875389, ED2K: D2011BB80D910C37DCA1057AAA0AFFB3
Screenshots
screenshotscreenshotscreenshotscreenshotscreenshot
Additional Info
General
Complete name                            : Pokémon - S05 - EP250 The Ice Cave! [SUB].avi
Format                                   : AVI
Format/Info                              : Audio Video Interleave
File size                                : 334 MiB
Duration                                 : 23 min 4 s
Overall bit rate                         : 2 023 kb/s
Writing library                          : VirtualDub build 24469/release

Video
ID                                       : 0
Format                                   : MPEG-4 Visual
Format profile                           : Advanced Simple@L5
Format settings                          : BVOP1
Format settings, BVOP                    : 1
Format settings, QPel                    : No
Format settings, GMC                     : No warppoints
Format settings, Matrix                  : Default (H.263)
Muxing mode                              : Packed bitstream
Codec ID                                 : XVID
Codec ID/Hint                            : XviD
Duration                                 : 23 min 4 s
Bit rate                                 : 1 886 kb/s
Width                                    : 640 pixels
Height                                   : 480 pixels
Display aspect ratio                     : 4:3
Frame rate                               : 23.976 (24000/1001) FPS
Color space                              : YUV
Chroma subsampling                       : 4:2:0
Bit depth                                : 8 bits
Scan type                                : Progressive
Compression mode                         : Lossy
Bits/(Pixel*Frame)                       : 0.256
Stream size                              : 311 MiB (93%)
Writing library                          : XviD 1.2.0.dev47 (UTC 2006-11-01)

Audio
ID                                       : 1
Format                                   : MPEG Audio
Format version                           : Version 1
Format profile                           : Layer 3
Format settings                          : Joint stereo
Codec ID                                 : 55
Codec ID/Hint                            : MP3
Duration                                 : 23 min 4 s
Bit rate mode                            : Constant
Bit rate                                 : 128 kb/s
Channel(s)                               : 2 channels
Sampling rate                            : 48.0 kHz
Compression mode                         : Lossy
Stream size                              : 21.1 MiB (6%)
Alignment                                : Split accross interleaves
Interleave, duration                     : 42  ms (1.00 video frame)
Interleave, preload duration             : 500  ms

Other Files in this Torrent
Pokémon - S05 - EP250 The Ice Cave! [SUB].avi
beta
Anime DDL+NZB mirror
Current Time: 16/07/2024 15:31



About/FAQs

Discord