File Size189.1 MB (198,264,186 bytes)
DownloadClickNUpload | Go4Up | Jheberg | MultiUp | OpenLoad | Sendspace | ZippyShare
HashesCRC32: DCB6DEDD, MD5: 589E4F51E9D5585850C66DE3F2C76CD9, SHA1: 23F7EC73687F19CD832647C725391DD537B0113B, SHA256: 31243275545FC1F90322F911FC28B4A9D822411B4CD65BD0BB0DC34EA96A3B11, ED2K: 0228A64E23DB223A42271900EAFA9E42
Screenshots
screenshotscreenshotscreenshotscreenshotscreenshot
Additional Info
General
Complete name                            : Pokémon - S05 - EP246 [ATTKC][DCB6DEDD].mp4
Format                                   : MPEG-4
Format profile                           : Base Media / Version 2
Codec ID                                 : mp42 (isom/iso2/mp41)
File size                                : 189 MiB
Duration                                 : 21 min 31 s
Overall bit rate mode                    : Variable
Overall bit rate                         : 1 228 kb/s
Encoded date                             : UTC 2017-06-15 22:54:39
Tagged date                              : UTC 2017-06-15 22:54:39
Writing application                      : HandBrake 1.0.7 2017040900

Video
ID                                       : 1
Format                                   : HEVC
Format/Info                              : High Efficiency Video Coding
Format profile                           : Main@L3@Main
Codec ID                                 : hev1
Codec ID/Info                            : High Efficiency Video Coding
Duration                                 : 21 min 31 s
Bit rate                                 : 1 061 kb/s
Width                                    : 716 pixels
Height                                   : 480 pixels
Display aspect ratio                     : 4:3
Frame rate mode                          : Constant
Frame rate                               : 29.970 (30000/1001) FPS
Color space                              : YUV
Chroma subsampling                       : 4:2:0
Bit depth                                : 8 bits
Bits/(Pixel*Frame)                       : 0.103
Stream size                              : 163 MiB (86%)
Writing library                          : x265 2.1:[Windows][GCC 5.3.1][64 bit] 8bit
Encoding settings                        : wpp / ctu=64 / min-cu-size=8 / max-tu-size=32 / tu-intra-depth=1 / tu-inter-depth=1 / me=3 / subme=3 / merange=57 / no-rect / no-amp / max-merge=3 / temporal-mvp / no-early-skip / rskip / rdpenalty=0 / no-tskip / no-tskip-fast / no-strong-intra-smoothing / no-lossless / no-cu-lossless / no-constrained-intra / no-fast-intra / open-gop / no-temporal-layers / interlace=0 / keyint=300 / min-keyint=30 / scenecut=40 / rc-lookahead=25 / lookahead-slices=0 / bframes=4 / bframe-bias=0 / b-adapt=2 / ref=4 / limit-refs=3 / limit-modes / weightp / no-weightb / aq-mode=1 / qg-size=32 / aq-strength=1.00 / cbqpoffs=0 / crqpoffs=0 / rd=4 / psy-rd=2.00 / rdoq-level=2 / psy-rdoq=1.00 / log2-max-poc-lsb=8 / no-rd-refine / signhide / deblock=0:0 / sao / no-sao-non-deblock / b-pyramid / cutree / no-intra-refresh / rc=crf / crf=20.0 / qcomp=0.60 / qpmin=0 / qpmax=69 / qpstep=4 / ipratio=1.40 / pbratio=1.30
Encoded date                             : UTC 2017-06-15 22:54:39
Tagged date                              : UTC 2017-06-15 22:54:39
Color range                              : Limited
Color primaries                          : BT.601 NTSC
Transfer characteristics                 : BT.709
Matrix coefficients                      : BT.601
Menus                                    : 4
Codec configuration box                  : hvcC

Audio
ID                                       : 2
Format                                   : AAC LC
Format/Info                              : Advanced Audio Codec Low Complexity
Codec ID                                 : mp4a-40-2
Duration                                 : 21 min 31 s
Bit rate mode                            : Variable
Bit rate                                 : 160 kb/s
Channel(s)                               : 2 channels
Channel layout                           : L R
Sampling rate                            : 48.0 kHz
Frame rate                               : 46.875 FPS (1024 SPF)
Compression mode                         : Lossy
Stream size                              : 24.7 MiB (13%)
Title                                    : Stereo / Stereo
Language                                 : English
Default                                  : Yes
Alternate group                          : 1
Encoded date                             : UTC 2017-06-15 22:54:39
Tagged date                              : UTC 2017-06-15 22:54:39
Menus                                    : 4

Text
ID                                       : 3
Format                                   : Timed Text
Muxing mode                              : sbtl
Codec ID                                 : tx3g
Duration                                 : 21 min 30 s
Bit rate mode                            : Variable
Bit rate                                 : 109 b/s
Stream size                              : 17.2 KiB (0%)
Language                                 : English
Default                                  : Yes
Forced                                   : No
Alternate group                          : 3
Encoded date                             : UTC 2017-06-15 22:54:39
Tagged date                              : UTC 2017-06-15 22:54:39
Menus                                    : 4

Menu
ID                                       : 4
Codec ID                                 : text
Duration                                 : 21 min 31 s
Language                                 : English
Encoded date                             : UTC 2017-06-15 22:54:39
Tagged date                              : UTC 2017-06-15 22:54:39
Bit rate mode                            : CBR
Menu For                                 : 1,2,3
00:00:00.000                             : Chapter 1
00:01:50.043                             : Chapter 2
00:12:14.500                             : Chapter 3
00:21:00.793                             : Chapter 4

Other Files in this Torrent
Pokémon - S05 - EP246 [ATTKC][DCB6DEDD].mp4
beta
Anime DDL+NZB mirror
Current Time: 16/07/2024 16:32



About/FAQs

Discord