File Size126.1 MB (132,216,146 bytes)
DownloadAnonFiles | Go4Up | Jheberg | MultiUp | Sendspace | ShareBeast | SolidFiles
HashesCRC32: 740BB5AD, MD5: AD02D3C5B56611B9E74934D8FC2CBA38, SHA1: A1B193104776D4FE0C4480AFA7E19752E11B5828, ED2K: 6D4FA4A105DBCC9EA35FCB2EB4F30F03
Screenshots
screenshotscreenshotscreenshotscreenshotscreenshot
Additional Info
General
Complete name                            : [PF] Tokyo Ghoul - 12.mp4
Format                                   : MPEG-4
Format profile                           : Base Media / Version 2
Codec ID                                 : mp42
File size                                : 126 MiB
Duration                                 : 24mn 9s
Overall bit rate mode                    : Variable
Overall bit rate                         : 730 Kbps
Encoded date                             : UTC 2014-09-20 14:59:53
Tagged date                              : UTC 2014-09-20 14:59:53

Video
ID                                       : 1
Format                                   : AVC
Format/Info                              : Advanced Video Codec
Format profile                           : High@L4.0
Format settings, CABAC                   : Yes
Format settings, ReFrames                : 8 frames
Codec ID                                 : avc1
Codec ID/Info                            : Advanced Video Coding
Duration                                 : 24mn 9s
Bit rate                                 : 653 Kbps
Width                                    : 1 280 pixels
Height                                   : 720 pixels
Display aspect ratio                     : 16:9
Frame rate mode                          : Constant
Frame rate                               : 23.976 fps
Color space                              : YUV
Chroma subsampling                       : 4:2:0
Bit depth                                : 8 bits
Scan type                                : Progressive
Bits/(Pixel*Frame)                       : 0.030
Stream size                              : 113 MiB (89%)
Encoded date                             : UTC 2014-09-20 14:59:53
Tagged date                              : UTC 2014-09-20 14:59:53

Audio
ID                                       : 2
Format                                   : AAC
Format/Info                              : Advanced Audio Codec
Format profile                           : LC
Codec ID                                 : 40
Duration                                 : 24mn 9s
Bit rate mode                            : Variable
Bit rate                                 : 72.0 Kbps
Channel(s)                               : 2 channels
Channel positions                        : Front: L R
Sampling rate                            : 32.0 KHz
Compression mode                         : Lossy
Stream size                              : 12.7 MiB (10%)
Encoded date                             : UTC 2014-09-20 14:59:53
Tagged date                              : UTC 2014-09-20 14:59:53

Other Files in this Torrent
[PF] Tokyo Ghoul - 12.mp4
beta
Anime DDL+NZB mirror
Current Time: 12/12/2019 03:40



About/FAQs