File Size111.8 MB (117,268,795 bytes)
DownloadAnonFiles | Go4Up | Jheberg | MultiUp | Sendspace | ShareBeast | SolidFiles
HashesCRC32: 1492CEE1, MD5: 2EDFAB5814FEDF05DCFE05B53DE819AC, SHA1: BE6860646A093390B96D05E0D345CC5F226BD1E1, ED2K: 130B030EE239E39F6A5710BB88A29019
Screenshots
screenshotscreenshotscreenshotscreenshotscreenshot
Additional Info
General
Complete name                            : [PF] Tokyo Ghoul - 05.mp4
Format                                   : MPEG-4
Format profile                           : Base Media / Version 2
Codec ID                                 : mp42
File size                                : 112 MiB
Duration                                 : 24mn 9s
Overall bit rate mode                    : Variable
Overall bit rate                         : 647 Kbps
Encoded date                             : UTC 2014-09-05 05:17:36
Tagged date                              : UTC 2014-09-05 05:17:36

Video
ID                                       : 1
Format                                   : AVC
Format/Info                              : Advanced Video Codec
Format profile                           : High@L4.0
Format settings, CABAC                   : Yes
Format settings, ReFrames                : 8 frames
Codec ID                                 : avc1
Codec ID/Info                            : Advanced Video Coding
Duration                                 : 24mn 9s
Bit rate                                 : 565 Kbps
Width                                    : 1 280 pixels
Height                                   : 720 pixels
Display aspect ratio                     : 16:9
Frame rate mode                          : Constant
Frame rate                               : 23.976 fps
Color space                              : YUV
Chroma subsampling                       : 4:2:0
Bit depth                                : 8 bits
Scan type                                : Progressive
Bits/(Pixel*Frame)                       : 0.026
Stream size                              : 97.6 MiB (87%)
Encoded date                             : UTC 2014-09-05 05:17:36
Tagged date                              : UTC 2014-09-05 05:17:36

Audio
ID                                       : 2
Format                                   : AAC
Format/Info                              : Advanced Audio Codec
Format profile                           : LC
Codec ID                                 : 40
Duration                                 : 24mn 9s
Bit rate mode                            : Variable
Bit rate                                 : 79.2 Kbps
Channel(s)                               : 2 channels
Channel positions                        : Front: L R
Sampling rate                            : 32.0 KHz
Compression mode                         : Lossy
Stream size                              : 13.7 MiB (12%)
Encoded date                             : UTC 2014-09-05 05:17:36
Tagged date                              : UTC 2014-09-05 05:17:36

Other Files in this Torrent
[PF] Tokyo Ghoul - 05.mp4
beta
Anime DDL+NZB mirror
Current Time: 22/11/2019 11:36



About/FAQs