File Size101.0 MB (105,932,599 bytes)
DownloadAnonFiles | Go4Up | Jheberg | MultiUp | Sendspace | ShareBeast | SolidFiles
HashesCRC32: E3D00730, MD5: 06A5A1BBA3349609E3AF35C8AB609F0E, SHA1: F7B5F8A035F1C0782D56CAC4FE848976DD3606A2, ED2K: 5620D0ED5AEE3FFB9530868FD3268F3A
Screenshots
screenshotscreenshotscreenshotscreenshotscreenshot
Additional Info
General
Complete name                            : [PF] Tokyo Ghoul - 02.mp4
Format                                   : MPEG-4
Format profile                           : Base Media / Version 2
Codec ID                                 : mp42
File size                                : 101 MiB
Duration                                 : 23mn 59s
Overall bit rate mode                    : Variable
Overall bit rate                         : 589 Kbps
Encoded date                             : UTC 2014-09-05 05:37:07
Tagged date                              : UTC 2014-09-05 05:37:07

Video
ID                                       : 1
Format                                   : AVC
Format/Info                              : Advanced Video Codec
Format profile                           : High@L4.0
Format settings, CABAC                   : Yes
Format settings, ReFrames                : 8 frames
Codec ID                                 : avc1
Codec ID/Info                            : Advanced Video Coding
Duration                                 : 23mn 59s
Bit rate                                 : 507 Kbps
Width                                    : 1 280 pixels
Height                                   : 720 pixels
Display aspect ratio                     : 16:9
Frame rate mode                          : Constant
Frame rate                               : 23.976 fps
Color space                              : YUV
Chroma subsampling                       : 4:2:0
Bit depth                                : 8 bits
Scan type                                : Progressive
Bits/(Pixel*Frame)                       : 0.023
Stream size                              : 87.1 MiB (86%)
Encoded date                             : UTC 2014-09-05 05:37:07
Tagged date                              : UTC 2014-09-05 05:37:07

Audio
ID                                       : 2
Format                                   : AAC
Format/Info                              : Advanced Audio Codec
Format profile                           : LC
Codec ID                                 : 40
Duration                                 : 23mn 59s
Bit rate mode                            : Variable
Bit rate                                 : 78.0 Kbps
Channel(s)                               : 2 channels
Channel positions                        : Front: L R
Sampling rate                            : 32.0 KHz
Compression mode                         : Lossy
Stream size                              : 13.4 MiB (13%)
Encoded date                             : UTC 2014-09-05 05:37:07
Tagged date                              : UTC 2014-09-05 05:37:07

Other Files in this Torrent
[PF] Tokyo Ghoul - 02.mp4
beta
Anime DDL+NZB mirror
Current Time: 12/12/2019 04:07



About/FAQs