File Size126.6 MB (132,716,122 bytes)
DownloadAnonFiles | Go4Up | Jheberg | MultiUp | Sendspace | ShareBeast | SolidFiles
HashesCRC32: C244E343, MD5: 3AC93CF64477C2736F4E81BBCD73056F, SHA1: AABB5E40DE856A5DCA06290DB837176D522C4DE5, ED2K: BEF5DFA4045F7A53038EF481474D3594
Screenshots
screenshotscreenshotscreenshotscreenshotscreenshot
Additional Info
General
Complete name                            : [PF] Tokyo Ghoul - 07.mp4
Format                                   : MPEG-4
Format profile                           : Base Media / Version 2
Codec ID                                 : mp42
File size                                : 127 MiB
Duration                                 : 24mn 8s
Overall bit rate mode                    : Variable
Overall bit rate                         : 733 Kbps
Encoded date                             : UTC 2014-09-05 07:34:48
Tagged date                              : UTC 2014-09-05 07:34:48

Video
ID                                       : 1
Format                                   : AVC
Format/Info                              : Advanced Video Codec
Format profile                           : High@L4.0
Format settings, CABAC                   : Yes
Format settings, ReFrames                : 8 frames
Codec ID                                 : avc1
Codec ID/Info                            : Advanced Video Coding
Duration                                 : 24mn 7s
Bit rate                                 : 650 Kbps
Width                                    : 1 280 pixels
Height                                   : 720 pixels
Display aspect ratio                     : 16:9
Frame rate mode                          : Constant
Frame rate                               : 23.976 fps
Color space                              : YUV
Chroma subsampling                       : 4:2:0
Bit depth                                : 8 bits
Scan type                                : Progressive
Bits/(Pixel*Frame)                       : 0.029
Stream size                              : 112 MiB (89%)
Encoded date                             : UTC 2014-09-05 07:34:48
Tagged date                              : UTC 2014-09-05 07:34:48

Audio
ID                                       : 2
Format                                   : AAC
Format/Info                              : Advanced Audio Codec
Format profile                           : LC
Codec ID                                 : 40
Duration                                 : 24mn 8s
Bit rate mode                            : Variable
Bit rate                                 : 80.6 Kbps
Channel(s)                               : 2 channels
Channel positions                        : Front: L R
Sampling rate                            : 32.0 KHz
Compression mode                         : Lossy
Stream size                              : 13.9 MiB (11%)
Encoded date                             : UTC 2014-09-05 07:34:48
Tagged date                              : UTC 2014-09-05 07:34:48

Other Files in this Torrent
[PF] Tokyo Ghoul - 07.mp4
beta
Anime DDL+NZB mirror
Current Time: 14/11/2019 12:15



About/FAQs