File Size117.1 MB (122,812,437 bytes)
DownloadAnonFiles | Go4Up | Jheberg | MultiUp | Sendspace | ShareBeast | SolidFiles
HashesCRC32: 1D2C93DE, MD5: FC71CC265D1EB022C769B65F76BAD817, SHA1: 139B6B21CFFECB00310EF092C108620F7AE25056, ED2K: 746CEA3D22936441BE58F5447429E8F3
Screenshots
screenshotscreenshotscreenshotscreenshotscreenshot
Additional Info
General
Complete name                            : [PF] Tokyo Ghoul - 01.mp4
Format                                   : MPEG-4
Format profile                           : Base Media / Version 2
Codec ID                                 : mp42
File size                                : 117 MiB
Duration                                 : 24mn 10s
Overall bit rate mode                    : Variable
Overall bit rate                         : 678 Kbps
Encoded date                             : UTC 2014-09-04 19:07:53
Tagged date                              : UTC 2014-09-04 19:07:53

Video
ID                                       : 1
Format                                   : AVC
Format/Info                              : Advanced Video Codec
Format profile                           : High@L4.0
Format settings, CABAC                   : Yes
Format settings, ReFrames                : 8 frames
Codec ID                                 : avc1
Codec ID/Info                            : Advanced Video Coding
Duration                                 : 24mn 9s
Bit rate                                 : 596 Kbps
Width                                    : 1 280 pixels
Height                                   : 720 pixels
Display aspect ratio                     : 16:9
Frame rate mode                          : Constant
Frame rate                               : 23.976 fps
Color space                              : YUV
Chroma subsampling                       : 4:2:0
Bit depth                                : 8 bits
Scan type                                : Progressive
Bits/(Pixel*Frame)                       : 0.027
Stream size                              : 103 MiB (88%)
Encoded date                             : UTC 2014-09-04 19:07:53
Tagged date                              : UTC 2014-09-04 19:07:53

Audio
ID                                       : 2
Format                                   : AAC
Format/Info                              : Advanced Audio Codec
Format profile                           : LC
Codec ID                                 : 40
Duration                                 : 24mn 10s
Bit rate mode                            : Variable
Bit rate                                 : 78.0 Kbps
Channel(s)                               : 2 channels
Channel positions                        : Front: L R
Sampling rate                            : 32.0 KHz
Compression mode                         : Lossy
Stream size                              : 13.5 MiB (12%)
Encoded date                             : UTC 2014-09-04 19:07:53
Tagged date                              : UTC 2014-09-04 19:07:53

Other Files in this Torrent
[PF] Tokyo Ghoul - 01.mp4
beta
Anime DDL+NZB mirror
Current Time: 14/12/2019 21:16



About/FAQs