File Size109.5 MB (114,841,268 bytes)
DownloadAnonFiles | Go4Up | Jheberg | MultiUp | Sendspace | ShareBeast | SolidFiles
HashesCRC32: B7CB5467, MD5: 8AED0FF1FB321642C865DCFCB7AF019E, SHA1: 864492E853D29DD2A2EB5CD8ECF3590568A74E63, ED2K: 6785807999B04403307A6BFA66AA8771
Screenshots
screenshotscreenshotscreenshotscreenshotscreenshot
Additional Info
General
Complete name                            : [PF] Tokyo Ghoul - 10.mp4
Format                                   : MPEG-4
Format profile                           : Base Media / Version 2
Codec ID                                 : mp42
File size                                : 110 MiB
Duration                                 : 24mn 9s
Overall bit rate mode                    : Variable
Overall bit rate                         : 634 Kbps
Encoded date                             : UTC 2014-09-06 06:44:22
Tagged date                              : UTC 2014-09-06 06:44:22

Video
ID                                       : 1
Format                                   : AVC
Format/Info                              : Advanced Video Codec
Format profile                           : High@L4.0
Format settings, CABAC                   : Yes
Format settings, ReFrames                : 8 frames
Codec ID                                 : avc1
Codec ID/Info                            : Advanced Video Coding
Duration                                 : 24mn 9s
Bit rate                                 : 551 Kbps
Width                                    : 1 280 pixels
Height                                   : 720 pixels
Display aspect ratio                     : 16:9
Frame rate mode                          : Constant
Frame rate                               : 23.976 fps
Color space                              : YUV
Chroma subsampling                       : 4:2:0
Bit depth                                : 8 bits
Scan type                                : Progressive
Bits/(Pixel*Frame)                       : 0.025
Stream size                              : 95.2 MiB (87%)
Encoded date                             : UTC 2014-09-06 06:44:22
Tagged date                              : UTC 2014-09-06 06:44:22

Audio
ID                                       : 2
Format                                   : AAC
Format/Info                              : Advanced Audio Codec
Format profile                           : LC
Codec ID                                 : 40
Duration                                 : 24mn 9s
Bit rate mode                            : Variable
Bit rate                                 : 79.6 Kbps
Channel(s)                               : 2 channels
Channel positions                        : Front: L R
Sampling rate                            : 32.0 KHz
Compression mode                         : Lossy
Stream size                              : 13.8 MiB (13%)
Encoded date                             : UTC 2014-09-06 06:44:22
Tagged date                              : UTC 2014-09-06 06:44:22

Other Files in this Torrent
[PF] Tokyo Ghoul - 10.mp4
beta
Anime DDL+NZB mirror
Current Time: 12/12/2019 03:19



About/FAQs