File Size119.7 MB (125,552,901 bytes)
DownloadAnonFiles | Go4Up | Jheberg | MultiUp | Sendspace | ShareBeast | SolidFiles
HashesCRC32: D46944EA, MD5: CD355086F85F15C0A35DC5C98A8027E1, SHA1: 84FE275D02612F793AB73EBE308056F1549A0AEB, ED2K: 47765F3A0BD1E353D63BA4F0B1EC69EB
Screenshots
screenshotscreenshotscreenshotscreenshotscreenshot
Additional Info
General
Complete name                            : [PF] Tokyo Ghoul - 04.mp4
Format                                   : MPEG-4
Format profile                           : Base Media / Version 2
Codec ID                                 : mp42
File size                                : 120 MiB
Duration                                 : 23mn 59s
Overall bit rate mode                    : Variable
Overall bit rate                         : 698 Kbps
Encoded date                             : UTC 2014-09-04 17:56:03
Tagged date                              : UTC 2014-09-04 17:56:03

Video
ID                                       : 1
Format                                   : AVC
Format/Info                              : Advanced Video Codec
Format profile                           : High@L4.0
Format settings, CABAC                   : Yes
Format settings, ReFrames                : 8 frames
Codec ID                                 : avc1
Codec ID/Info                            : Advanced Video Coding
Duration                                 : 23mn 59s
Bit rate                                 : 616 Kbps
Width                                    : 1 280 pixels
Height                                   : 720 pixels
Display aspect ratio                     : 16:9
Frame rate mode                          : Constant
Frame rate                               : 23.976 fps
Color space                              : YUV
Chroma subsampling                       : 4:2:0
Bit depth                                : 8 bits
Scan type                                : Progressive
Bits/(Pixel*Frame)                       : 0.028
Stream size                              : 106 MiB (88%)
Encoded date                             : UTC 2014-09-04 17:56:03
Tagged date                              : UTC 2014-09-04 17:56:03

Audio
ID                                       : 2
Format                                   : AAC
Format/Info                              : Advanced Audio Codec
Format profile                           : LC
Codec ID                                 : 40
Duration                                 : 23mn 59s
Bit rate mode                            : Variable
Bit rate                                 : 78.1 Kbps
Channel(s)                               : 2 channels
Channel positions                        : Front: L R
Sampling rate                            : 32.0 KHz
Compression mode                         : Lossy
Stream size                              : 13.4 MiB (11%)
Encoded date                             : UTC 2014-09-04 17:56:03
Tagged date                              : UTC 2014-09-04 17:56:03

Other Files in this Torrent
[PF] Tokyo Ghoul - 04.mp4
beta
Anime DDL+NZB mirror
Current Time: 14/12/2019 21:15



About/FAQs